999
dxflib 3.26.4.0
  0
SECTION
  2
HEADER
  9
$ACADVER
  1
AC1015
  9
$HANDSEED
  5
FFFF
  9
$DIMADEC
 70
0
  9
$DIMASZ
 40
1.0
  9
$DIMATFIT
 70
0
  9
$DIMAUNIT
 70
0
  9
$DIMAZIN
 70
2
  9
$DIMBLK
  1
0
  9
$DIMBLK1
  1
0
  9
$DIMBLK2
  1
0
  9
$DIMDEC
 70
4
  9
$DIMDLI
 40
2.0
  9
$DIMDSEP
 70
46
  9
$DIMEXE
 40
0.5
  9
$DIMEXO
 40
0.25
  9
$DIMGAP
 40
0.25
  9
$DIMLFAC
 40
1.0
  9
$DIMLUNIT
 70
2
  9
$DIMSCALE
 40
1.0
  9
$DIMTAD
 70
1
  9
$DIMTIH
 70
0
  9
$DIMTSZ
 40
0.0
  9
$DIMTXT
 40
1.0
  9
$DIMZIN
 70
8
  9
$DWGCODEPAGE
  3
ANSI_1252
  9
$INSUNITS
 70
4
  9
$LTSCALE
 40
1.0
  9
$MAXACTVP
 70
64
  9
$MEASUREMENT
 70
1
  9
$MIRRTEXT
 70
0
  9
$PDMODE
 70
0
  9
$PDSIZE
 40
0.0
  0
ENDSEC
  0
SECTION
  2
TABLES
  0
TABLE
  2
VPORT
  5
8
100
AcDbSymbolTable
 70
1
  0
VPORT
  5
30
100
AcDbSymbolTableRecord
100
AcDbViewportTableRecord
  2
*Active
 70
0
 10
0.0
 20
0.0
 11
1.0
 21
1.0
 12
286.3055555555554861
 22
148.5
 13
0.0
 23
0.0
 14
10.0
 24
10.0
 15
10.0
 25
10.0
 16
0.0
 26
0.0
 36
1.0
 17
0.0
 27
0.0
 37
0.0
 40
297.0
 41
1.92798353909465
 42
50.0
 43
0.0
 44
0.0
 50
0.0
 51
0.0
 71
0
 72
100
 73
1
 74
3
 75
1
 76
1
 77
0
 78
0
281
0
 65
1
110
0.0
120
0.0
130
0.0
111
1.0
121
0.0
131
0.0
112
0.0
122
1.0
132
0.0
 79
0
146
0.0
  0
ENDTAB
  0
TABLE
  2
LTYPE
  5
5
100
AcDbSymbolTable
 70
41
  0
LTYPE
  5
16
100
AcDbSymbolTableRecord
100
AcDbLinetypeTableRecord
  2
Continuous
 70
0
  3
Solid line
 72
65
 73
0
 40
0.0
  0
LTYPE
  5
31
100
AcDbSymbolTableRecord
100
AcDbLinetypeTableRecord
  2
ACAD_ISO13W100
 70
0
  3
ISO double-dash double-dot __ __ . . __ __ . . _
 72
65
 73
8
 40
36.0000000000000071
 49
12.0
 74
0
 49
-3.0
 74
0
 49
12.0
 74
0
 49
-2.9500000000000002
 74
0
 49
0.1
 74
0
 49
-2.9000000000000004
 74
0
 49
0.1
 74
0
 49
-2.9500000000000002
 74
0
  0
LTYPE
  5
32
100
AcDbSymbolTableRecord
100
AcDbLinetypeTableRecord
  2
HIDDEN
 70
0
  3
Hidden __ __ __ __ __ __ __ __ __ __ __ __ __ __
 72
65
 73
2
 40
9.5249999999999986
 49
6.3499999999999996
 74
0
 49
-3.1749999999999998
 74
0
  0
LTYPE
  5
33
100
AcDbSymbolTableRecord
100
AcDbLinetypeTableRecord
  2
PHANTOM2
 70
0
  3
Phantom (.5x) ___ _ _ ___ _ _ ___ _ _ ___ _ _
 72
65
 73
6
 40
31.7500000000000036
 49
15.875
 74
0
 49
-3.1749999999999998
 74
0
 49
3.1749999999999998
 74
0
 49
-3.1749999999999998
 74
0
 49
3.1749999999999998
 74
0
 49
-3.1749999999999998
 74
0
  0
LTYPE
  5
14
100
AcDbSymbolTableRecord
100
AcDbLinetypeTableRecord
  2
BYBLOCK
 70
0
  3

 72
65
 73
0
 40
0.0
  0
LTYPE
  5
34
100
AcDbSymbolTableRecord
100
AcDbLinetypeTableRecord
  2
DIVIDEX2
 70
0
  3
Divide (2x) ________  .  .  ________  .  .  _
 72
65
 73
6
 40
63.5
 49
25.3999999999999986
 74
0
 49
-12.6499999999999986
 74
0
 49
0.1
 74
0
 49
-12.5999999999999979
 74
0
 49
0.1
 74
0
 49
-12.6499999999999986
 74
0
  0
LTYPE
  5
35
100
AcDbSymbolTableRecord
100
AcDbLinetypeTableRecord
  2
DASHED2
 70
0
  3
Dashed (.5x) _ _ _ _ _ _ _ _ _ _ _ _ _ _ _ _ _ 
 72
65
 73
2
 40
9.5249999999999986
 49
6.3499999999999996
 74
0
 49
-3.1749999999999998
 74
0
  0
LTYPE
  5
36
100
AcDbSymbolTableRecord
100
AcDbLinetypeTableRecord
  2
DASHED
 70
0
  3
Dashed __ __ __ __ __ __ __ __ __ __ __ __ __ _
 72
65
 73
2
 40
19.0499999999999972
 49
12.6999999999999993
 74
0
 49
-6.3499999999999996
 74
0
  0
LTYPE
  5
37
100
AcDbSymbolTableRecord
100
AcDbLinetypeTableRecord
  2
BORDER
 70
0
  3
Border __ __ . __ __ . __ __ . __ __ . __ __ .
 72
65
 73
6
 40
44.4499999999999957
 49
12.6999999999999993
 74
0
 49
-6.3499999999999996
 74
0
 49
12.6999999999999993
 74
0
 49
-6.2999999999999998
 74
0
 49
0.1
 74
0
 49
-6.2999999999999998
 74
0
  0
LTYPE
  5
38
100
AcDbSymbolTableRecord
100
AcDbLinetypeTableRecord
  2
ACAD_ISO02W100
 70
0
  3
ISO dash __ __ __ __ __ __ __ __ __ __ __ __ __
 72
65
 73
2
 40
15.0
 49
12.0
 74
0
 49
-3.0
 74
0
  0
LTYPE
  5
39
100
AcDbSymbolTableRecord
100
AcDbLinetypeTableRecord
  2
DOT
 70
0
  3
Dot . . . . . . . . . . . . . . . . . . . . . . . .
 72
65
 73
2
 40
6.3499999999999996
 49
0.1
 74
0
 49
-6.25
 74
0
  0
LTYPE
  5
3A
100
AcDbSymbolTableRecord
100
AcDbLinetypeTableRecord
  2
DASHDOTX2
 70
0
  3
Dash dot (2x) ____  .  ____  .  ____  .  ___
 72
65
 73
4
 40
50.7999999999999972
 49
25.3999999999999986
 74
0
 49
-12.6499999999999986
 74
0
 49
0.1
 74
0
 49
-12.6499999999999986
 74
0
  0
LTYPE
  5
3B
100
AcDbSymbolTableRecord
100
AcDbLinetypeTableRecord
  2
ACAD_ISO08W100
 70
0
  3
ISO long-dash short-dash ____ __ ____ __ ____ _
 72
65
 73
4
 40
36.0
 49
24.0
 74
0
 49
-3.0
 74
0
 49
6.0
 74
0
 49
-3.0
 74
0
  0
LTYPE
  5
3C
100
AcDbSymbolTableRecord
100
AcDbLinetypeTableRecord
  2
ACAD_ISO03W100
 70
0
  3
ISO dash space __    __    __    __    __    __
 72
65
 73
2
 40
30.0
 49
12.0
 74
0
 49
-18.0
 74
0
  0
LTYPE
  5
3D
100
AcDbSymbolTableRecord
100
AcDbLinetypeTableRecord
  2
DASHDOT2
 70
0
  3
Dash dot (.5x) _._._._._._._._._._._._._._._.
 72
65
 73
4
 40
12.6999999999999993
 49
6.3499999999999996
 74
0
 49
-3.125
 74
0
 49
0.1
 74
0
 49
-3.125
 74
0
  0
LTYPE
  5
3E
100
AcDbSymbolTableRecord
100
AcDbLinetypeTableRecord
  2
PHANTOMX2
 70
0
  3
Phantom (2x) ____________    ____    ____   _
 72
65
 73
6
 40
127.0000000000000142
 49
63.5
 74
0
 49
-12.6999999999999993
 74
0
 49
12.6999999999999993
 74
0
 49
-12.6999999999999993
 74
0
 49
12.6999999999999993
 74
0
 49
-12.6999999999999993
 74
0
  0
LTYPE
  5
3F
100
AcDbSymbolTableRecord
100
AcDbLinetypeTableRecord
  2
DOT2
 70
0
  3
Dot (.5x) ........................................
 72
65
 73
2
 40
3.1749999999999998
 49
0.1
 74
0
 49
-3.0749999999999997
 74
0
  0
LTYPE
  5
40
100
AcDbSymbolTableRecord
100
AcDbLinetypeTableRecord
  2
ACAD_ISO15W100
 70
0
  3
ISO double-dash triple-dot __ __ . . . __ __ . .
 72
65
 73
10
 40
39.0000000000000071
 49
12.0
 74
0
 49
-3.0
 74
0
 49
12.0
 74
0
 49
-2.9500000000000002
 74
0
 49
0.1
 74
0
 49
-2.9000000000000004
 74
0
 49
0.1
 74
0
 49
-2.9000000000000004
 74
0
 49
0.1
 74
0
 49
-2.9500000000000002
 74
0
  0
LTYPE
  5
41
100
AcDbSymbolTableRecord
100
AcDbLinetypeTableRecord
  2
DIVIDE
 70
0
  3
Divide ____ . . ____ . . ____ . . ____ . . ____
 72
65
 73
6
 40
31.7500000000000036
 49
12.6999999999999993
 74
0
 49
-6.2999999999999998
 74
0
 49
0.1
 74
0
 49
-6.25
 74
0
 49
0.1
 74
0
 49
-6.2999999999999998
 74
0
  0
LTYPE
  5
42
100
AcDbSymbolTableRecord
100
AcDbLinetypeTableRecord
  2
ACAD_ISO05W100
 70
0
  3
ISO long-dash double-dot ____ .. ____ .. ____ . 
 72
65
 73
6
 40
33.0000000000000071
 49
24.0
 74
0
 49
-2.9500000000000002
 74
0
 49
0.1
 74
0
 49
-2.9000000000000004
 74
0
 49
0.1
 74
0
 49
-2.9500000000000002
 74
0
  0
LTYPE
  5
43
100
AcDbSymbolTableRecord
100
AcDbLinetypeTableRecord
  2
DIVIDE2
 70
0
  3
Divide (.5x) __..__..__..__..__..__..__..__.._
 72
65
 73
6
 40
15.8749999999999982
 49
6.3499999999999996
 74
0
 49
-3.125
 74
0
 49
0.1
 74
0
 49
-3.0750000000000002
 74
0
 49
0.1
 74
0
 49
-3.125
 74
0
  0
LTYPE
  5
44
100
AcDbSymbolTableRecord
100
AcDbLinetypeTableRecord
  2
DOTX2
 70
0
  3
Dot (2x) .  .  .  .  .  .  .  .  .  .  .  .  .  .
 72
65
 73
2
 40
12.6999999999999993
 49
0.1
 74
0
 49
-12.5999999999999996
 74
0
  0
LTYPE
  5
45
100
AcDbSymbolTableRecord
100
AcDbLinetypeTableRecord
  2
ACAD_ISO11W100
 70
0
  3
ISO double-dash dot __ __ . __ __ . __ __ . __ _
 72
65
 73
6
 40
33.0
 49
12.0
 74
0
 49
-3.0
 74
0
 49
12.0
 74
0
 49
-2.9500000000000002
 74
0
 49
0.1
 74
0
 49
-2.9500000000000002
 74
0
  0
LTYPE
  5
46
100
AcDbSymbolTableRecord
100
AcDbLinetypeTableRecord
  2
ACAD_ISO12W100
 70
0
  3
ISO dash double-dot __ . . __ . . __ . . __ . . 
 72
65
 73
6
 40
21.0
 49
12.0
 74
0
 49
-2.9500000000000002
 74
0
 49
0.1
 74
0
 49
-2.9000000000000004
 74
0
 49
0.1
 74
0
 49
-2.9500000000000002
 74
0
  0
LTYPE
  5
47
100
AcDbSymbolTableRecord
100
AcDbLinetypeTableRecord
  2
CENTER
 70
0
  3
Center ____ _ ____ _ ____ _ ____ _ ____ _ ____
 72
65
 73
4
 40
50.8000000000000043
 49
31.75
 74
0
 49
-6.3499999999999996
 74
0
 49
6.3499999999999996
 74
0
 49
-6.3499999999999996
 74
0
  0
LTYPE
  5
48
100
AcDbSymbolTableRecord
100
AcDbLinetypeTableRecord
  2
BORDER2
 70
0
  3
Border (.5x) __.__.__.__.__.__.__.__.__.__.__.
 72
65
 73
6
 40
22.2250000000000014
 49
6.3499999999999996
 74
0
 49
-3.1749999999999998
 74
0
 49
6.3499999999999996
 74
0
 49
-3.125
 74
0
 49
0.1
 74
0
 49
-3.125
 74
0
  0
LTYPE
  5
49
100
AcDbSymbolTableRecord
100
AcDbLinetypeTableRecord
  2
HIDDEN2
 70
0
  3
Hidden (.5x) _ _ _ _ _ _ _ _ _ _ _ _ _ _ _ _ _ 
 72
65
 73
2
 40
4.7624999999999993
 49
3.1749999999999998
 74
0
 49
-1.5874999999999999
 74
0
  0
LTYPE
  5
4A
100
AcDbSymbolTableRecord
100
AcDbLinetypeTableRecord
  2
BORDERX2
 70
0
  3
Border (2x) ____  ____  .  ____  ____  .  ___
 72
65
 73
6
 40
88.8999999999999773
 49
25.3999999999999986
 74
0
 49
-12.6999999999999993
 74
0
 49
25.3999999999999986
 74
0
 49
-12.6499999999999986
 74
0
 49
0.1
 74
0
 49
-12.6499999999999986
 74
0
  0
LTYPE
  5
4B
100
AcDbSymbolTableRecord
100
AcDbLinetypeTableRecord
  2
CENTERX2
 70
0
  3
Center (2x) ________  __  ________  __  _____
 72
65
 73
4
 40
101.6000000000000085
 49
63.5
 74
0
 49
-12.6999999999999993
 74
0
 49
12.6999999999999993
 74
0
 49
-12.6999999999999993
 74
0
  0
LTYPE
  5
4C
100
AcDbSymbolTableRecord
100
AcDbLinetypeTableRecord
  2
HIDDENX2
 70
0
  3
Hidden (2x) ____ ____ ____ ____ ____ ____ ____ 
 72
65
 73
2
 40
19.0499999999999972
 49
12.6999999999999993
 74
0
 49
-6.3499999999999996
 74
0
  0
LTYPE
  5
15
100
AcDbSymbolTableRecord
100
AcDbLinetypeTableRecord
  2
BYLAYER
 70
0
  3

 72
65
 73
0
 40
0.0
  0
LTYPE
  5
4D
100
AcDbSymbolTableRecord
100
AcDbLinetypeTableRecord
  2
ACAD_ISO14W100
 70
0
  3
ISO dash triple-dot __ . . . __ . . . __ . . . _
 72
65
 73
8
 40
24.0000000000000036
 49
12.0
 74
0
 49
-2.9500000000000002
 74
0
 49
0.1
 74
0
 49
-2.9000000000000004
 74
0
 49
0.1
 74
0
 49
-2.9000000000000004
 74
0
 49
0.1
 74
0
 49
-2.9500000000000002
 74
0
  0
LTYPE
  5
4E
100
AcDbSymbolTableRecord
100
AcDbLinetypeTableRecord
  2
CENTER2
 70
0
  3
Center (.5x) ___ _ ___ _ ___ _ ___ _ ___ _ ___
 72
65
 73
4
 40
28.5750000000000028
 49
19.0500000000000007
 74
0
 49
-3.1749999999999998
 74
0
 49
3.1749999999999998
 74
0
 49
-3.1749999999999998
 74
0
  0
LTYPE
  5
4F
100
AcDbSymbolTableRecord
100
AcDbLinetypeTableRecord
  2
ACAD_ISO10W100
 70
0
  3
ISO dash dot __ . __ . __ . __ . __ . __ . __ . 
 72
65
 73
4
 40
18.0
 49
12.0
 74
0
 49
-2.9500000000000002
 74
0
 49
0.1
 74
0
 49
-2.9500000000000002
 74
0
  0
LTYPE
  5
50
100
AcDbSymbolTableRecord
100
AcDbLinetypeTableRecord
  2
DASHEDX2
 70
0
  3
Dashed (2x) ____  ____  ____  ____  ____  ___
 72
65
 73
2
 40
38.0999999999999943
 49
25.3999999999999986
 74
0
 49
-12.6999999999999993
 74
0
  0
LTYPE
  5
51
100
AcDbSymbolTableRecord
100
AcDbLinetypeTableRecord
  2
DASHDOT
 70
0
  3
Dash dot __ . __ . __ . __ . __ . __ . __ . __
 72
65
 73
4
 40
25.4000000000000021
 49
12.6999999999999993
 74
0
 49
-6.2999999999999998
 74
0
 49
0.1
 74
0
 49
-6.2999999999999998
 74
0
  0
LTYPE
  5
52
100
AcDbSymbolTableRecord
100
AcDbLinetypeTableRecord
  2
ACAD_ISO09W100
 70
0
  3
ISO long-dash double-short-dash ____ __ __ ____
 72
65
 73
6
 40
45.0
 49
24.0
 74
0
 49
-3.0
 74
0
 49
6.0
 74
0
 49
-3.0
 74
0
 49
6.0
 74
0
 49
-3.0
 74
0
  0
LTYPE
  5
53
100
AcDbSymbolTableRecord
100
AcDbLinetypeTableRecord
  2
ACAD_ISO07W100
 70
0
  3
ISO dot . . . . . . . . . . . . . . . . . . . . 
 72
65
 73
2
 40
3.0
 49
0.1
 74
0
 49
-2.8999999999999999
 74
0
  0
LTYPE
  5
54
100
AcDbSymbolTableRecord
100
AcDbLinetypeTableRecord
  2
ACAD_ISO04W100
 70
0
  3
ISO long-dash dot ____ . ____ . ____ . ____ . _
 72
65
 73
4
 40
30.0
 49
24.0
 74
0
 49
-2.9500000000000002
 74
0
 49
0.1
 74
0
 49
-2.9500000000000002
 74
0
  0
LTYPE
  5
55
100
AcDbSymbolTableRecord
100
AcDbLinetypeTableRecord
  2
ACAD_ISO06W100
 70
0
  3
ISO long-dash triple-dot ____ ... ____ ... ____
 72
65
 73
8
 40
36.0000000000000071
 49
24.0
 74
0
 49
-2.9500000000000002
 74
0
 49
0.1
 74
0
 49
-2.9000000000000004
 74
0
 49
0.1
 74
0
 49
-2.9000000000000004
 74
0
 49
0.1
 74
0
 49
-2.9500000000000002
 74
0
  0
LTYPE
  5
56
100
AcDbSymbolTableRecord
100
AcDbLinetypeTableRecord
  2
PHANTOM
 70
0
  3
Phantom ______  __  __  ______  __  __  ______ 
 72
65
 73
6
 40
63.5000000000000071
 49
31.75
 74
0
 49
-6.3499999999999996
 74
0
 49
6.3499999999999996
 74
0
 49
-6.3499999999999996
 74
0
 49
6.3499999999999996
 74
0
 49
-6.3499999999999996
 74
0
  0
ENDTAB
  0
TABLE
  2
LAYER
  5
2
100
AcDbSymbolTable
 70
5
  0
LAYER
  5
57
100
AcDbSymbolTableRecord
100
AcDbLayerTableRecord
  2
dim
 70
0
 62
252
420
10526884
  6
Continuous
370
25
390
F
  0
LAYER
  5
58
100
AcDbSymbolTableRecord
100
AcDbLayerTableRecord
  2
--
 70
0
 62
7
420
0
  6
ACAD_ISO02W100
370
18
390
F
  0
LAYER
  5
10
100
AcDbSymbolTableRecord
100
AcDbLayerTableRecord
  2
0
 70
0
 62
7
420
0
  6
Continuous
370
35
390
F
  0
LAYER
  5
59
100
AcDbSymbolTableRecord
100
AcDbLayerTableRecord
  2
-.-
 70
0
 62
7
420
0
  6
ACAD_ISO10W100
370
18
390
F
  0
LAYER
  5
5A
100
AcDbSymbolTableRecord
100
AcDbLayerTableRecord
  2
-
 70
0
 62
7
420
0
  6
Continuous
370
18
390
F
  0
ENDTAB
  0
TABLE
  2
STYLE
  5
3
100
AcDbSymbolTable
 70
4
  0
STYLE
  5
5B
100
AcDbSymbolTableRecord
100
AcDbTextStyleTableRecord
  2
Standard
 70
0
 40
0.0
 41
1.0
 50
0.0
 71
0
 42
2.5
  3

  4

1001
ACAD
1000
txt
1071
0
  0
STYLE
  5
5C
100
AcDbSymbolTableRecord
100
AcDbTextStyleTableRecord
  2
textstyle0
 70
0
 40
0.0
 41
1.0
 50
0.0
 71
0
 42
1.0
  3

  4

1001
ACAD
1000
Liberation Sans
1071
33554432
  0
STYLE
  5
5D
100
AcDbSymbolTableRecord
100
AcDbTextStyleTableRecord
  2
textstyle1
 70
0
 40
0.0
 41
1.0
 50
0.0
 71
0
 42
1.0
  3

  4

1001
ACAD
1000
Liberation Sans
1071
33554432
  0
STYLE
  5
5E
100
AcDbSymbolTableRecord
100
AcDbTextStyleTableRecord
  2
textstyle2
 70
0
 40
0.0
 41
1.0
 50
0.0
 71
0
 42
1.0
  3

  4

1001
ACAD
1000
Liberation Sans
1071
33554432
  0
ENDTAB
  0
TABLE
  2
VIEW
  5
6
100
AcDbSymbolTable
 70
0
  0
ENDTAB
  0
TABLE
  2
UCS
  5
7
100
AcDbSymbolTable
 70
0
  0
ENDTAB
  0
TABLE
  2
APPID
  5
9
100
AcDbSymbolTable
 70
1
  0
APPID
  5
12
100
AcDbSymbolTableRecord
100
AcDbRegAppTableRecord
  2
ACAD
 70
0
  0
APPID
  5
5F
100
AcDbSymbolTableRecord
100
AcDbRegAppTableRecord
  2
QCAD
 70
0
  0
ENDTAB
  0
TABLE
  2
DIMSTYLE
  5
A
100
AcDbSymbolTable
 70
1
100
AcDbDimStyleTable
 71
0
  0
DIMSTYLE
105
27
100
AcDbSymbolTableRecord
100
AcDbDimStyleTableRecord
  2
Standard
 41
1.0
 42
0.25
 43
3.75
 44
0.5
 70
0
 73
0
 74
0
 77
1
 78
8
140
1.0
141
2.5
143
0.03937007874016
147
0.25
171
3
172
1
271
2
272
2
274
3
278
44
283
0
284
8
340
5B
  0
ENDTAB
  0
TABLE
  2
BLOCK_RECORD
  5
1
100
AcDbSymbolTable
 70
1
  0
BLOCK_RECORD
  5
1F
100
AcDbSymbolTableRecord
100
AcDbBlockTableRecord
  2
*Model_Space
340
22
  0
BLOCK_RECORD
  5
1B
100
AcDbSymbolTableRecord
100
AcDbBlockTableRecord
  2
*Paper_Space
340
1E
  0
BLOCK_RECORD
  5
23
100
AcDbSymbolTableRecord
100
AcDbBlockTableRecord
  2
*Paper_Space0
340
26
  0
ENDTAB
  0
ENDSEC
  0
SECTION
  2
BLOCKS
  0
BLOCK
  5
20
100
AcDbEntity
  8
0
100
AcDbBlockBegin
  2
*Model_Space
 70
0
 10
0.0
 20
0.0
 30
0.0
  3
*Model_Space
  1

  0
ENDBLK
  5
21
100
AcDbEntity
  8
0
100
AcDbBlockEnd
  0
BLOCK
  5
1C
100
AcDbEntity
 67
1
  8
0
100
AcDbBlockBegin
  2
*Paper_Space
 70
0
 10
0.0
 20
0.0
 30
0.0
  3
*Paper_Space
  1

  0
ENDBLK
  5
1D
100
AcDbEntity
 67
1
  8
0
100
AcDbBlockEnd
  0
BLOCK
  5
24
100
AcDbEntity
  8
0
100
AcDbBlockBegin
  2
*Paper_Space0
 70
0
 10
0.0
 20
0.0
 30
0.0
  3
*Paper_Space0
  1

  0
ENDBLK
  5
25
100
AcDbEntity
  8
0
100
AcDbBlockEnd
  0
ENDSEC
  0
SECTION
  2
ENTITIES
  0
LINE
  5
60
100
AcDbEntity
  8
-.-
 62
256
370
-1
 48
1.0
  6
BYLAYER
100
AcDbLine
 10
80.0
 20
82.0
 30
0.0
 11
80.0
 21
21.0
 31
0.0
  0
LINE
  5
61
100
AcDbEntity
  8
-.-
 62
256
370
-1
 48
1.0
  6
BYLAYER
100
AcDbLine
 10
80.0
 20
-0.0000000000000142
 30
0.0
 11
80.0
 21
10.9999999999999858
 31
0.0
  0
LINE
  5
62
100
AcDbEntity
  8
0
 62
256
370
-1
 48
1.0
  6
BYLAYER
100
AcDbLine
 10
70.0999999999999943
 20
80.0
 30
0.0
 11
70.0999999999999943
 21
77.7000000000000171
 31
0.0
  0
LINE
  5
63
100
AcDbEntity
  8
0
 62
256
370
-1
 48
1.0
  6
BYLAYER
100
AcDbLine
 10
70.0999999999999943
 20
75.2999999999999972
 30
0.0
 11
70.0999999999999943
 21
73.0
 31
0.0
  0
LINE
  5
64
100
AcDbEntity
  8
0
 62
256
370
-1
 48
1.0
  6
BYLAYER
100
AcDbLine
 10
89.8999999999999915
 20
80.0
 30
0.0
 11
89.8999999999999915
 21
77.7000000000000171
 31
0.0
  0
LINE
  5
65
100
AcDbEntity
  8
0
 62
256
370
-1
 48
1.0
  6
BYLAYER
100
AcDbLine
 10
89.9000000000000057
 20
75.2999999999999972
 30
0.0
 11
89.9000000000000057
 21
73.0
 31
0.0
  0
LINE
  5
66
100
AcDbEntity
  8
0
 62
256
370
-1
 48
1.0
  6
BYLAYER
100
AcDbLine
 10
70.0999999999999801
 20
80.0
 30
0.0
 11
74.0000000000000142
 21
80.0
 31
0.0
  0
LINE
  5
67
100
AcDbEntity
  8
0
 62
256
370
-1
 48
1.0
  6
BYLAYER
100
AcDbLine
 10
86.0
 20
80.0
 30
0.0
 11
89.8999999999999915
 21
80.0
 31
0.0
  0
LINE
  5
68
100
AcDbEntity
  8
0
 62
256
370
-1
 48
1.0
  6
BYLAYER
100
AcDbLine
 10
72.5499999999999972
 20
73.0
 30
0.0
 11
70.0999999999999943
 21
73.0
 31
0.0
  0
LINE
  5
69
100
AcDbEntity
  8
0
 62
256
370
-1
 48
1.0
  6
BYLAYER
100
AcDbLine
 10
89.9000000000000057
 20
73.0
 30
0.0
 11
87.4499999999999886
 21
73.0
 31
0.0
  0
LINE
  5
6A
100
AcDbEntity
  8
0
 62
256
370
-1
 48
1.0
  6
BYLAYER
100
AcDbLine
 10
86.7999999999999829
 20
0.9999999999999929
 30
0.0
 11
85.0
 21
0.9999999999999929
 31
0.0
  0
LINE
  5
6B
100
AcDbEntity
  8
0
 62
256
370
-1
 48
1.0
  6
BYLAYER
100
AcDbLine
 10
73.1999999999999886
 20
0.9999999999999929
 30
0.0
 11
75.0000000000000142
 21
0.9999999999999929
 31
0.0
  0
LINE
  5
6C
100
AcDbEntity
  8
0
 62
256
370
-1
 48
1.0
  6
BYLAYER
100
AcDbLine
 10
85.0
 20
0.9999999999999929
 30
0.0
 11
85.0
 21
5.9999999999999929
 31
0.0
  0
LINE
  5
6D
100
AcDbEntity
  8
0
 62
256
370
-1
 48
1.0
  6
BYLAYER
100
AcDbLine
 10
75.0000000000000142
 20
0.9999999999999929
 30
0.0
 11
75.0000000000000142
 21
5.9999999999999858
 31
0.0
  0
LINE
  5
6E
100
AcDbEntity
  8
0
 62
256
370
-1
 48
1.0
  6
BYLAYER
100
AcDbLine
 10
85.0
 20
5.9999999999999929
 30
0.0
 11
81.0
 21
5.9999999999999929
 31
0.0
  0
LINE
  5
6F
100
AcDbEntity
  8
0
 62
256
370
-1
 48
1.0
  6
BYLAYER
100
AcDbLine
 10
75.0000000000000142
 20
5.9999999999999858
 30
0.0
 11
79.0
 21
5.9999999999999929
 31
0.0
  0
LINE
  5
70
100
AcDbEntity
  8
0
 62
256
370
-1
 48
1.0
  6
BYLAYER
100
AcDbLine
 10
81.0
 20
5.9999999999999929
 30
0.0
 11
81.0
 21
0.9999999999999929
 31
0.0
  0
LINE
  5
71
100
AcDbEntity
  8
0
 62
256
370
-1
 48
1.0
  6
BYLAYER
100
AcDbLine
 10
79.0
 20
5.9999999999999929
 30
0.0
 11
79.0
 21
0.9999999999999929
 31
0.0
  0
LINE
  5
72
100
AcDbEntity
  8
0
 62
256
370
-1
 48
1.0
  6
BYLAYER
100
AcDbLine
 10
79.5
 20
1.0
 30
0.0
 11
79.0
 21
0.9999999999999929
 31
0.0
  0
LINE
  5
73
100
AcDbEntity
  8
-
 62
256
370
-1
 48
1.0
  6
BYLAYER
100
AcDbLine
 10
75.0000000000000142
 20
0.9999999999999929
 30
0.0
 11
85.0
 21
0.9999999999999929
 31
0.0
  0
LINE
  5
74
100
AcDbEntity
  8
0
 62
256
370
-1
 48
1.0
  6
BYLAYER
100
AcDbLine
 10
79.5
 20
0.9999999999999929
 30
0.0
 11
79.5000000000000142
 21
10.9999999999999929
 31
0.0
  0
LINE
  5
75
100
AcDbEntity
  8
0
 62
256
370
-1
 48
1.0
  6
BYLAYER
100
AcDbLine
 10
80.5
 20
10.9999999999999982
 30
0.0
 11
80.5
 21
0.9999999999999929
 31
0.0
  0
LINE
  5
76
100
AcDbEntity
  8
0
 62
256
370
-1
 48
1.0
  6
BYLAYER
100
AcDbLine
 10
80.5
 20
0.9999999999999858
 30
0.0
 11
81.0
 21
0.9999999999999929
 31
0.0
  0
LINE
  5
77
100
AcDbEntity
  8
-
 62
256
370
-1
 48
1.0
  6
BYLAYER
100
AcDbLine
 10
79.5000000000000284
 20
10.9999999999999929
 30
0.0
 11
80.5
 21
10.9999999999999982
 31
0.0
  0
LINE
  5
78
100
AcDbEntity
  8
-.-
 62
256
370
-1
 48
1.0
  6
BYLAYER
100
AcDbLine
 10
80.0
 20
-10.9999999999999982
 30
0.0
 11
80.0
 21
-21.0000000000000071
 31
0.0
  0
LINE
  5
79
100
AcDbEntity
  8
0
 62
256
370
-1
 48
1.0
  6
BYLAYER
100
AcDbLine
 10
72.5999999999999943
 20
-11.9999999999999982
 30
0.0
 11
72.5999999999999943
 21
-20.0
 31
0.0
  0
LINE
  5
7A
100
AcDbEntity
  8
0
 62
256
370
-1
 48
1.0
  6
BYLAYER
100
AcDbLine
 10
72.5999999999999943
 20
-20.0
 30
0.0
 11
87.3999999999999915
 21
-20.0
 31
0.0
  0
LINE
  5
7B
100
AcDbEntity
  8
0
 62
256
370
-1
 48
1.0
  6
BYLAYER
100
AcDbLine
 10
87.3999999999999915
 20
-20.0
 30
0.0
 11
87.3999999999999915
 21
-20.0
 31
0.0
  0
LINE
  5
7C
100
AcDbEntity
  8
0
 62
256
370
-1
 48
1.0
  6
BYLAYER
100
AcDbLine
 10
87.3999999999999915
 20
-20.0
 30
0.0
 11
87.3999999999999915
 21
-11.9999999999999982
 31
0.0
  0
LINE
  5
7D
100
AcDbEntity
  8
0
 62
256
370
-1
 48
1.0
  6
BYLAYER
100
AcDbLine
 10
87.3999999999999915
 20
-11.9999999999999982
 30
0.0
 11
86.1999999999999886
 21
-11.9999999999999982
 31
0.0
  0
LINE
  5
7E
100
AcDbEntity
  8
0
 62
256
370
-1
 48
1.0
  6
BYLAYER
100
AcDbLine
 10
86.1999999999999886
 20
-11.9999999999999982
 30
0.0
 11
86.1999999999999886
 21
-17.0
 31
0.0
  0
LINE
  5
7F
100
AcDbEntity
  8
0
 62
256
370
-1
 48
1.0
  6
BYLAYER
100
AcDbLine
 10
86.1999999999999886
 20
-17.0
 30
0.0
 11
73.7999999999999972
 21
-17.0
 31
0.0
  0
LINE
  5
80
100
AcDbEntity
  8
0
 62
256
370
-1
 48
1.0
  6
BYLAYER
100
AcDbLine
 10
73.7999999999999972
 20
-17.0
 30
0.0
 11
73.7999999999999972
 21
-11.9999999999999982
 31
0.0
  0
LINE
  5
81
100
AcDbEntity
  8
0
 62
256
370
-1
 48
1.0
  6
BYLAYER
100
AcDbLine
 10
73.7999999999999972
 20
-11.9999999999999982
 30
0.0
 11
72.5999999999999943
 21
-11.9999999999999982
 31
0.0
  0
HATCH
  5
82
100
AcDbEntity
  8
-
 62
256
370
-1
 48
1.0
  6
BYLAYER
100
AcDbHatch
 10
0.0
 20
0.0
 30
0.0
210
0.0
220
0.0
230
1.0
  2
ANSI31
 70
0
 71
0
 91
1
 92
1
 93
8
 72
1
 10
86.1999999999999886
 20
-11.9999999999999982
 11
86.1999999999999886
 21
-17.0
 72
1
 10
86.1999999999999886
 20
-17.0
 11
73.7999999999999972
 21
-17.0
 72
1
 10
73.7999999999999972
 20
-17.0
 11
73.7999999999999972
 21
-11.9999999999999982
 72
1
 10
73.7999999999999972
 20
-11.9999999999999982
 11
72.5999999999999943
 21
-11.9999999999999982
 72
1
 10
72.5999999999999943
 20
-11.9999999999999982
 11
72.5999999999999943
 21
-20.0
 72
1
 10
72.5999999999999943
 20
-20.0
 11
87.3999999999999915
 21
-20.0
 72
1
 10
87.3999999999999915
 20
-20.0
 11
87.3999999999999915
 21
-11.9999999999999982
 72
1
 10
87.3999999999999915
 20
-11.9999999999999982
 11
86.1999999999999886
 21
-11.9999999999999982
 97
0
 75
0
 76
1
 52
0.0
 41
0.25
 77
0
 78
1
 53
45.0
 43
0.0
 44
0.0
 45
-0.0883883476483184
 46
0.0883883476483185
 79
0
 98
0
1001
ACAD
1010
0.0
1020
0.0
1030
0
  0
LINE
  5
83
100
AcDbEntity
  8
-
 62
256
370
-1
 48
1.0
  6
BYLAYER
100
AcDbLine
 10
73.7999999999999972
 20
-11.9999999999999982
 30
0.0
 11
86.1999999999999886
 21
-11.9999999999999982
 31
0.0
  0
DIMENSION
  5
84
100
AcDbEntity
  8
dim
 62
256
370
-1
 48
1.0
  6
BYLAYER
100
AcDbDimension
 10
72.5999999999999943
 20
-22.8125000000001101
 30
0.0
 11
80.0
 21
-22.0625000000001101
 31
0.0
 70
0
 71
8
 72
2
 74
0
 75
0
 41
1.0
 42
0.0
  1
D14.8
  3
Standard
100
AcDbAlignedDimension
 13
72.5999999999999943
 23
-20.0
 33
0.0
 14
87.3999999999999915
 24
-20.0
 34
0.0
 50
0.0
100
AcDbRotatedDimension
1001
ACAD
1000
DSTYLE
1002
{
1070
144
1040
1.0
1070
40
1040
1.0
1002
}
  0
DIMENSION
  5
85
100
AcDbEntity
  8
dim
 62
256
370
-1
 48
1.0
  6
BYLAYER
100
AcDbDimension
 10
73.2000000000000028
 20
-5.0
 30
0.0
 11
80.0
 21
-4.25
 31
0.0
 70
0
 71
8
 72
2
 74
0
 75
0
 41
1.0
 42
0.0
  1
D~13.6
  3
Standard
100
AcDbAlignedDimension
 13
73.2000000000000028
 23
0.9999999999999929
 33
0.0
 14
86.7999999999999972
 24
0.9999999999999929
 34
0.0
 50
0.0
100
AcDbRotatedDimension
1001
ACAD
1000
DSTYLE
1002
{
1070
144
1040
1.0
1070
40
1040
1.0
1002
}
  0
DIMENSION
  5
86
100
AcDbEntity
  8
dim
 62
256
370
-1
 48
1.0
  6
BYLAYER
100
AcDbDimension
 10
73.7999999999999972
 20
-9.9999999999999787
 30
0.0
 11
80.0
 21
-9.2499999999999787
 31
0.0
 70
0
 71
8
 72
2
 74
0
 75
0
 41
1.0
 42
0.0
  1
D~12.5
  3
Standard
100
AcDbAlignedDimension
 13
73.7999999999999972
 23
-11.9999999999999982
 33
0.0
 14
86.1999999999999886
 24
-11.9999999999999982
 34
0.0
 50
0.0
100
AcDbRotatedDimension
1001
ACAD
1000
DSTYLE
1002
{
1070
144
1040
1.0
1070
40
1040
1.0
1002
}
  0
DIMENSION
  5
87
100
AcDbEntity
  8
dim
 62
256
370
-1
 48
1.0
  6
BYLAYER
100
AcDbDimension
 10
70.0
 20
-20.0
 30
0.0
 11
69.25
 21
-16.0
 31
0.0
 70
0
 71
8
 72
2
 74
0
 75
0
 41
1.0
 42
0.0
  1

  3
Standard
100
AcDbAlignedDimension
 13
72.5999999999999943
 23
-20.0
 33
0.0
 14
72.5999999999999943
 24
-11.9999999999999982
 34
0.0
 50
270.0
100
AcDbRotatedDimension
1001
ACAD
1000
DSTYLE
1002
{
1070
144
1040
1.0
1070
40
1040
1.0
1002
}
  0
DIMENSION
  5
88
100
AcDbEntity
  8
dim
 62
256
370
-1
 48
1.0
  6
BYLAYER
100
AcDbDimension
 10
84.0
 20
-14.5
 30
0.0
 11
83.25
 21
-14.5
 31
0.0
 70
0
 71
8
 72
2
 74
0
 75
0
 41
1.0
 42
0.0
  1

  3
Standard
100
AcDbAlignedDimension
 13
84.0000000000000142
 23
-17.0
 33
0.0
 14
84.0
 24
-11.9999999999999982
 34
0.0
 50
270.0
100
AcDbRotatedDimension
1001
ACAD
1000
DSTYLE
1002
{
1070
144
1040
1.0
1070
40
1040
1.0
1002
}
  0
LINE
  5
89
100
AcDbEntity
  8
-.-
 62
256
370
-1
 48
1.0
  6
BYLAYER
100
AcDbLine
 10
77.0
 20
6.9999999999999929
 30
0.0
 11
77.0
 21
-0.0000000000000071
 31
0.0
  0
LINE
  5
8A
100
AcDbEntity
  8
-.-
 62
256
370
-1
 48
1.0
  6
BYLAYER
100
AcDbLine
 10
83.0
 20
-0.0000000000000071
 30
0.0
 11
83.0
 21
6.9999999999999929
 31
0.0
  0
DIMENSION
  5
8B
100
AcDbEntity
  8
dim
 62
256
370
-1
 48
1.0
  6
BYLAYER
100
AcDbDimension
 10
75.0
 20
-1.0000000000000284
 30
0.0
 11
77.0
 21
-0.2500000000000284
 31
0.0
 70
0
 71
8
 72
2
 74
0
 75
0
 41
1.0
 42
0.0
  1
D4
  3
Standard
100
AcDbAlignedDimension
 13
75.0000000000000142
 23
0.9999999999999716
 33
0.0
 14
79.0
 24
0.9999999999999858
 34
0.0
 50
0.0
100
AcDbRotatedDimension
1001
ACAD
1000
DSTYLE
1002
{
1070
144
1040
1.0
1070
40
1040
1.0
1002
}
  0
DIMENSION
  5
8C
100
AcDbEntity
  8
dim
 62
256
370
-1
 48
1.0
  6
BYLAYER
100
AcDbDimension
 10
81.0
 20
-0.9999999999999858
 30
0.0
 11
83.0
 21
-0.2499999999999858
 31
0.0
 70
0
 71
8
 72
2
 74
0
 75
0
 41
1.0
 42
0.0
  1
D4
  3
Standard
100
AcDbAlignedDimension
 13
81.0
 23
1.0
 33
0.0
 14
85.0
 24
1.0000000000000853
 34
0.0
 50
0.0
100
AcDbRotatedDimension
1001
ACAD
1000
DSTYLE
1002
{
1070
144
1040
1.0
1070
40
1040
1.0
1002
}
  0
DIMENSION
  5
8D
100
AcDbEntity
  8
dim
 62
256
370
-1
 48
1.0
  6
BYLAYER
100
AcDbDimension
 10
79.4999999999999858
 20
13.0000000000000284
 30
0.0
 11
81.75
 21
13.7500000000000284
 31
0.0
 70
0
 71
8
 72
2
 74
0
 75
0
 41
1.0
 42
0.0
  1
D1.1
  3
Standard
100
AcDbAlignedDimension
 13
79.5000000000000142
 23
10.9999999999999929
 33
0.0
 14
80.5
 24
11.0000000000000284
 34
0.0
 50
0.0
100
AcDbRotatedDimension
1001
ACAD
1000
DSTYLE
1002
{
1070
144
1040
1.0
1070
40
1040
1.0
1002
}
  0
DIMENSION
  5
8E
100
AcDbEntity
  8
dim
 62
256
370
-1
 48
1.0
  6
BYLAYER
100
AcDbDimension
 10
90.0000000000000142
 20
1.0000000000000853
 30
0.0
 11
89.2500000000000142
 21
3.5000000000000426
 31
0.0
 70
0
 71
8
 72
2
 74
0
 75
0
 41
1.0
 42
0.0
  1

  3
Standard
100
AcDbAlignedDimension
 13
86.7999999999999972
 23
1.0000000000000853
 33
0.0
 14
85.0
 24
6.0
 34
0.0
 50
270.0
100
AcDbRotatedDimension
1001
ACAD
1000
DSTYLE
1002
{
1070
144
1040
1.0
1070
40
1040
1.0
1002
}
  0
MTEXT
  5
8F
100
AcDbEntity
  8
0
 62
256
370
-1
 48
1.0
  6
BYLAYER
100
AcDbMText
 10
101.4403120673952685
 20
-13.7187499999996909
 30
0.0
 40
1.0
 41
0.0
 71
1
 72
1
  1
\fLiberation Sans|b0|i0|c0|p0;Cell for vibrating wires V2, GRP\PV.Zavjalov, 03-06-2022
  7
textstyle0
 50
0.0
 73
2
 44
1.0
  0
CIRCLE
  5
90
100
AcDbEntity
  8
0
 62
256
370
-1
 48
1.0
  6
BYLAYER
100
AcDbCircle
 10
110.0
 20
0.0
 30
0.0
 40
6.7999999999999998
  0
CIRCLE
  5
91
100
AcDbEntity
  8
0
 62
256
370
-1
 48
1.0
  6
BYLAYER
100
AcDbCircle
 10
107.0
 20
0.0
 30
0.0
 40
2.0
  0
CIRCLE
  5
92
100
AcDbEntity
  8
0
 62
256
370
-1
 48
1.0
  6
BYLAYER
100
AcDbCircle
 10
113.0
 20
0.0
 30
0.0
 40
2.0
  0
CIRCLE
  5
93
100
AcDbEntity
  8
0
 62
256
370
-1
 48
1.0
  6
BYLAYER
100
AcDbCircle
 10
110.0
 20
0.0
 30
0.0
 40
0.5
  0
CIRCLE
  5
94
100
AcDbEntity
  8
0
 62
256
370
-1
 48
1.0
  6
BYLAYER
100
AcDbCircle
 10
113.5355339059327378
 20
3.5355339059327364
 30
0.0
 40
0.5
  0
CIRCLE
  5
95
100
AcDbEntity
  8
0
 62
256
370
-1
 48
1.0
  6
BYLAYER
100
AcDbCircle
 10
106.4644660940672765
 20
3.5355339059327306
 30
0.0
 40
0.5
  0
CIRCLE
  5
96
100
AcDbEntity
  8
0
 62
256
370
-1
 48
1.0
  6
BYLAYER
100
AcDbCircle
 10
106.4644660940672622
 20
-3.5355339059327333
 30
0.0
 40
0.5
  0
CIRCLE
  5
97
100
AcDbEntity
  8
0
 62
256
370
-1
 48
1.0
  6
BYLAYER
100
AcDbCircle
 10
113.5355339059327662
 20
-3.5355339059327529
 30
0.0
 40
0.5
  0
LINE
  5
98
100
AcDbEntity
  8
-.-
 62
256
370
-1
 48
1.0
  6
BYLAYER
100
AcDbLine
 10
110.0
 20
-8.0
 30
0.0
 11
110.0
 21
8.0
 31
0.0
  0
LINE
  5
99
100
AcDbEntity
  8
-.-
 62
256
370
-1
 48
1.0
  6
BYLAYER
100
AcDbLine
 10
118.0
 20
0.0
 30
0.0
 11
102.0
 21
0.0
 31
0.0
  0
LINE
  5
9A
100
AcDbEntity
  8
-.-
 62
256
370
-1
 48
1.0
  6
BYLAYER
100
AcDbLine
 10
113.0
 20
2.9999999999999929
 30
0.0
 11
113.0
 21
-3.0
 31
0.0
  0
LINE
  5
9B
100
AcDbEntity
  8
-.-
 62
256
370
-1
 48
1.0
  6
BYLAYER
100
AcDbLine
 10
107.0
 20
-3.0
 30
0.0
 11
107.0
 21
3.0
 31
0.0
  0
LINE
  5
9C
100
AcDbEntity
  8
-.-
 62
256
370
-1
 48
1.0
  6
BYLAYER
100
AcDbLine
 10
112.8284271247461987
 20
2.8284271247461921
 30
0.0
 11
114.2426406871192768
 21
4.2426406871192732
 31
0.0
  0
LINE
  5
9D
100
AcDbEntity
  8
-.-
 62
256
370
-1
 48
1.0
  6
BYLAYER
100
AcDbLine
 10
112.8284271247461987
 20
-2.8284271247461996
 30
0.0
 11
114.2426406871193052
 21
-4.2426406871192999
 31
0.0
  0
LINE
  5
9E
100
AcDbEntity
  8
-.-
 62
256
370
-1
 48
1.0
  6
BYLAYER
100
AcDbLine
 10
107.1715728752538155
 20
2.828427124746185
 30
0.0
 11
105.7573593128807374
 21
4.2426406871192714
 31
0.0
  0
LINE
  5
9F
100
AcDbEntity
  8
-.-
 62
256
370
-1
 48
1.0
  6
BYLAYER
100
AcDbLine
 10
107.1715728752538155
 20
-2.8284271247461907
 30
0.0
 11
105.7573593128807232
 21
-4.2426406871192848
 31
0.0
  0
ARC
  5
A0
100
AcDbEntity
  8
-.-
 62
256
370
-1
 48
1.0
  6
BYLAYER
100
AcDbCircle
 10
110.0000000000000426
 20
0.0000000000000431
 30
0.0
 40
5.0
100
AcDbArc
 50
27.8088761321859081
 51
62.1911238678142766
  0
ARC
  5
A1
100
AcDbEntity
  8
-.-
 62
256
370
-1
 48
1.0
  6
BYLAYER
100
AcDbCircle
 10
110.0000000000000568
 20
-0.0000000000000144
 30
0.0
 40
5.0
100
AcDbArc
 50
297.8088761321857874
 51
332.1911238678142126
  0
ARC
  5
A2
100
AcDbEntity
  8
-.-
 62
256
370
-1
 48
1.0
  6
BYLAYER
100
AcDbCircle
 10
110.0000000000000426
 20
0.0000000000000431
 30
0.0
 40
5.0
100
AcDbArc
 50
207.8088761321857589
 51
242.1911238678141274
  0
ARC
  5
A3
100
AcDbEntity
  8
-.-
 62
256
370
-1
 48
1.0
  6
BYLAYER
100
AcDbCircle
 10
110.0000000000000568
 20
-0.0000000000000144
 30
0.0
 40
5.0
100
AcDbArc
 50
117.8088761321857447
 51
152.191123867814099
  0
DIMENSION
  5
A4
100
AcDbEntity
  8
dim
 62
256
370
-1
 48
1.0
  6
BYLAYER
100
AcDbDimension
 10
103.2000000000000028
 20
10.9999999999999503
 30
0.0
 11
110.0
 21
11.7499999999999503
 31
0.0
 70
0
 71
8
 72
2
 74
0
 75
0
 41
1.0
 42
0.0
  1

  3
Standard
100
AcDbAlignedDimension
 13
103.2000000000000028
 23
0.0
 33
0.0
 14
116.7999999999999972
 24
0.0
 34
0.0
 50
0.0
100
AcDbRotatedDimension
1001
ACAD
1000
DSTYLE
1002
{
1070
144
1040
1.0
1070
40
1040
1.0
1002
}
  0
DIMENSION
  5
A5
100
AcDbEntity
  8
dim
 62
256
370
-1
 48
1.0
  6
BYLAYER
100
AcDbDimension
 10
110.0
 20
0.000000000000032
 30
0.0
 11
110.8429798529861046
 21
2.4701993780785307
 31
0.0
 70
4
 71
8
 72
2
 74
0
 41
1.0
 42
0.0
  1

  3
Standard
100
AcDbRadialDimension
 15
112.9064948007516591
 25
4.0684503159315213
 35
0.0
 40
0.0
1001
ACAD
1000
DSTYLE
1002
{
1070
144
1040
1.0
1070
40
1040
1.0
1002
}
  0
DIMENSION
  5
A6
100
AcDbEntity
  8
dim
 62
256
370
-1
 48
1.0
  6
BYLAYER
100
AcDbDimension
 10
108.7888543819998404
 20
0.8944271909998598
 30
0.0
 11
106.6645898033750512
 21
0.6708203932498917
 31
0.0
 70
3
 71
8
 72
2
 74
0
 75
0
 41
1.0
 42
0.0
  1

  3
Standard
100
AcDbDiametricDimension
 15
105.2111456180001881
 25
-0.8944271909999522
 35
0.0
 40
0.0
1001
ACAD
1000
DSTYLE
1002
{
1070
144
1040
1.0
1070
40
1040
1.0
1002
}
  0
DIMENSION
  5
A7
100
AcDbEntity
  8
dim
 62
256
370
-1
 48
1.0
  6
BYLAYER
100
AcDbDimension
 10
114.7888543819998404
 20
0.8944271909998527
 30
0.0
 11
112.664589803375037
 21
0.6708203932499104
 31
0.0
 70
3
 71
8
 72
2
 74
0
 75
0
 41
1.0
 42
0.0
  1

  3
Standard
100
AcDbDiametricDimension
 15
111.2111456180001596
 25
-0.8944271909999166
 35
0.0
 40
0.0
1001
ACAD
1000
DSTYLE
1002
{
1070
144
1040
1.0
1070
40
1040
1.0
1002
}
  0
LEADER
  5
A8
100
AcDbEntity
  8
dim
 62
256
370
-1
 48
1.0
  6
BYLAYER
100
AcDbLeader
  3
Standard
 71
1
 72
0
 73
3
 74
0
 75
0
 40
1.0
 41
10.0
 76
3
 10
114.4127264108701922
 20
-3.5132105150376649
 10
120.0
 20
-4.0
 10
125.0
 20
-4.0
1001
ACAD
1000
DSTYLE
1002
{
1070
40
1040
1.0
1002
}
  0
MTEXT
  5
A9
100
AcDbEntity
  8
dim
 62
256
370
-1
 48
1.0
  6
BYLAYER
100
AcDbMText
 10
120.1595246499165341
 20
-2.412943805088716
 30
0.0
 40
1.0
 41
0.0
 71
1
 72
1
  1
\fLiberation Sans|b0|i0|c0|p0;D=1.1 holes: 2 blind, 2 through\P
  7
textstyle1
 50
0.0
 73
2
 44
1.0
  0
DIMENSION
  5
AA
100
AcDbEntity
  8
dim
 62
256
370
-1
 48
1.0
  6
BYLAYER
100
AcDbDimension
 10
102.0
 20
0.0000000000000995
 30
0.0
 11
120.218557817757727
 21
4.2326652360089208
 31
0.0
 70
2
 71
8
 72
2
 74
0
 75
0
 41
1.0
 42
0.0
  1

  3
Standard
100
AcDb2LineAngularDimension
 13
114.2426406871192768
 23
4.2426406871192732
 33
0.0
 14
112.8284271247461987
 24
2.8284271247461921
 34
0.0
 15
118.0
 25
0.0000000000001066
 35
0.0
 16
119.4923761113911667
 26
4.0250395916809829
 36
0.0
  0
LINE
  5
AB
100
AcDbEntity
  8
0
 62
256
370
-1
 48
1.0
  6
BYLAYER
100
AcDbLine
 10
87.4500000000000028
 20
73.0
 30
0.0
 11
87.4500000000000028
 21
23.0
 31
0.0
  0
LINE
  5
AC
100
AcDbEntity
  8
0
 62
256
370
-1
 48
1.0
  6
BYLAYER
100
AcDbLine
 10
72.5499999999999972
 20
73.0
 30
0.0
 11
72.5499999999999972
 21
23.0
 31
0.0
  0
LINE
  5
AD
100
AcDbEntity
  8
0
 62
256
370
-1
 48
1.0
  6
BYLAYER
100
AcDbLine
 10
74.0
 20
80.0
 30
0.0
 11
74.0
 21
77.7000000000000028
 31
0.0
  0
LINE
  5
AE
100
AcDbEntity
  8
0
 62
256
370
-1
 48
1.0
  6
BYLAYER
100
AcDbLine
 10
74.0
 20
75.2999999999999829
 30
0.0
 11
74.0
 21
23.0
 31
0.0
  0
LINE
  5
AF
100
AcDbEntity
  8
0
 62
256
370
-1
 48
1.0
  6
BYLAYER
100
AcDbLine
 10
86.0
 20
23.0
 30
0.0
 11
86.0
 21
75.2999999999999829
 31
0.0
  0
LINE
  5
B0
100
AcDbEntity
  8
0
 62
256
370
-1
 48
1.0
  6
BYLAYER
100
AcDbLine
 10
86.0
 20
77.6999999999999886
 30
0.0
 11
86.0
 21
80.0
 31
0.0
  0
LINE
  5
B1
100
AcDbEntity
  8
0
 62
256
370
-1
 48
1.0
  6
BYLAYER
100
AcDbLine
 10
72.5500000000000114
 20
23.0
 30
0.0
 11
74.0
 21
23.0
 31
0.0
  0
LINE
  5
B2
100
AcDbEntity
  8
0
 62
256
370
-1
 48
1.0
  6
BYLAYER
100
AcDbLine
 10
86.0
 20
23.0
 30
0.0
 11
87.4500000000000028
 21
23.0
 31
0.0
  0
LINE
  5
B3
100
AcDbEntity
  8
--
 62
256
370
-1
 48
1.0
  6
BYLAYER
100
AcDbLine
 10
73.1999999999999886
 20
29.0
 30
0.0
 11
73.1999999999999886
 21
23.0
 31
0.0
  0
LINE
  5
B4
100
AcDbEntity
  8
--
 62
256
370
-1
 48
1.0
  6
BYLAYER
100
AcDbLine
 10
86.8000000000000114
 20
28.9999999999999964
 30
0.0
 11
86.8000000000000114
 21
23.0
 31
0.0
  0
LEADER
  5
B5
100
AcDbEntity
  8
dim
 62
256
370
-1
 48
1.0
  6
BYLAYER
100
AcDbLeader
  3
Standard
 71
1
 72
0
 73
3
 74
0
 75
0
 40
1.0
 41
10.0
 76
3
 10
89.0
 20
23.0
 10
94.0
 20
23.0
 10
94.0
 20
23.0
1001
ACAD
1000
DSTYLE
1002
{
1070
40
1040
1.0
1002
}
  0
MTEXT
  5
B6
100
AcDbEntity
  8
dim
 62
256
370
-1
 48
1.0
  6
BYLAYER
100
AcDbMText
 10
95.0
 20
23.0000000000000178
 30
0.0
 40
1.0
 41
0.0
 71
1
 72
1
  1
\fLiberation Sans|b0|i0|c0|p0;field center
  7
textstyle2
 50
0.0
 73
2
 44
1.0
  0
LINE
  5
B7
100
AcDbEntity
  8
-.-
 62
256
370
-1
 48
1.0
  6
BYLAYER
100
AcDbLine
 10
85.0
 20
76.5
 30
0.0
 11
90.9999999999999858
 21
76.5
 31
0.0
  0
LINE
  5
B8
100
AcDbEntity
  8
-.-
 62
256
370
-1
 48
1.0
  6
BYLAYER
100
AcDbLine
 10
75.0
 20
76.5
 30
0.0
 11
69.0000000000000142
 21
76.5
 31
0.0
  0
LINE
  5
B9
100
AcDbEntity
  8
-
 62
256
370
-1
 48
1.0
  6
BYLAYER
100
AcDbLine
 10
74.0
 20
80.0
 30
0.0
 11
86.0000000000000142
 21
80.0
 31
0.0
  0
LINE
  5
BA
100
AcDbEntity
  8
-
 62
256
370
-1
 48
1.0
  6
BYLAYER
100
AcDbLine
 10
74.0
 20
23.0
 30
0.0
 11
86.0000000000000142
 21
23.0
 31
0.0
  0
LINE
  5
BB
100
AcDbEntity
  8
-
 62
256
370
-1
 48
1.0
  6
BYLAYER
100
AcDbLine
 10
85.9999999999999858
 20
78.0
 30
0.0
 11
89.8999999999999915
 21
78.0000000000000142
 31
0.0
  0
LINE
  5
BC
100
AcDbEntity
  8
-
 62
256
370
-1
 48
1.0
  6
BYLAYER
100
AcDbLine
 10
74.0000000000000142
 20
78.0
 30
0.0
 11
70.1000000000000085
 21
78.0000000000000142
 31
0.0
  0
LINE
  5
BD
100
AcDbEntity
  8
-
 62
256
370
-1
 48
1.0
  6
BYLAYER
100
AcDbLine
 10
85.9999999999999858
 20
75.0
 30
0.0
 11
89.9000000000000057
 21
75.0
 31
0.0
  0
LINE
  5
BE
100
AcDbEntity
  8
-
 62
256
370
-1
 48
1.0
  6
BYLAYER
100
AcDbLine
 10
74.0000000000000142
 20
75.0
 30
0.0
 11
70.0999999999999943
 21
75.0
 31
0.0
  0
LINE
  5
BF
100
AcDbEntity
  8
0
 62
256
370
-1
 48
1.0
  6
BYLAYER
100
AcDbLine
 10
85.9999999999999858
 20
77.7000000000000028
 30
0.0
 11
89.8999999999999915
 21
77.7000000000000171
 31
0.0
  0
LINE
  5
C0
100
AcDbEntity
  8
0
 62
256
370
-1
 48
1.0
  6
BYLAYER
100
AcDbLine
 10
74.0000000000000142
 20
77.7000000000000028
 30
0.0
 11
70.1000000000000085
 21
77.7000000000000171
 31
0.0
  0
LINE
  5
C1
100
AcDbEntity
  8
0
 62
256
370
-1
 48
1.0
  6
BYLAYER
100
AcDbLine
 10
85.9999999999999858
 20
75.2999999999999829
 30
0.0
 11
89.9000000000000057
 21
75.2999999999999972
 31
0.0
  0
LINE
  5
C2
100
AcDbEntity
  8
0
 62
256
370
-1
 48
1.0
  6
BYLAYER
100
AcDbLine
 10
74.0000000000000142
 20
75.2999999999999829
 30
0.0
 11
70.0999999999999943
 21
75.3000000000000114
 31
0.0
  0
LINE
  5
C3
100
AcDbEntity
  8
-
 62
256
370
-1
 48
1.0
  6
BYLAYER
100
AcDbLine
 10
89.9000000000000057
 20
75.3000000000000114
 30
0.0
 11
89.8999999999999915
 21
77.7000000000000171
 31
0.0
  0
LINE
  5
C4
100
AcDbEntity
  8
-
 62
256
370
-1
 48
1.0
  6
BYLAYER
100
AcDbLine
 10
86.0
 20
75.2999999999999972
 30
0.0
 11
86.0
 21
77.7000000000000028
 31
0.0
  0
LINE
  5
C5
100
AcDbEntity
  8
-
 62
256
370
-1
 48
1.0
  6
BYLAYER
100
AcDbLine
 10
74.0000000000000142
 20
75.2999999999999829
 30
0.0
 11
74.0
 21
77.7000000000000028
 31
0.0
  0
LINE
  5
C6
100
AcDbEntity
  8
-
 62
256
370
-1
 48
1.0
  6
BYLAYER
100
AcDbLine
 10
70.0999999999999943
 20
75.3000000000000114
 30
0.0
 11
70.0999999999999943
 21
77.7000000000000171
 31
0.0
  0
HATCH
  5
C7
100
AcDbEntity
  8
-
 62
256
370
-1
 48
1.0
  6
BYLAYER
100
AcDbHatch
 10
0.0
 20
0.0
 30
0.0
210
0.0
220
0.0
230
1.0
  2
ANSI31
 70
0
 71
0
 91
4
 92
1
 93
6
 72
1
 10
74.0
 20
75.2999999999999829
 11
74.0
 21
23.0
 72
1
 10
74.0
 20
23.0
 11
72.5500000000000114
 21
23.0
 72
1
 10
72.5499999999999972
 20
23.0
 11
72.5499999999999972
 21
73.0
 72
1
 10
72.5499999999999972
 20
73.0
 11
70.0999999999999943
 21
73.0
 72
1
 10
70.0999999999999943
 20
73.0
 11
70.0999999999999943
 21
75.2999999999999972
 72
1
 10
70.0999999999999943
 20
75.3000000000000114
 11
74.0000000000000142
 21
75.2999999999999829
 97
0
 92
1
 93
4
 72
1
 10
74.0
 20
80.0
 11
74.0
 21
77.7000000000000028
 72
1
 10
74.0000000000000142
 20
77.7000000000000028
 11
70.1000000000000085
 21
77.7000000000000171
 72
1
 10
70.0999999999999943
 20
77.7000000000000171
 11
70.0999999999999943
 21
80.0
 72
1
 10
70.0999999999999801
 20
80.0
 11
74.0000000000000142
 21
80.0
 97
0
 92
1
 93
4
 72
1
 10
86.0
 20
77.6999999999999886
 11
86.0
 21
80.0
 72
1
 10
86.0
 20
80.0
 11
89.8999999999999915
 21
80.0
 72
1
 10
89.8999999999999915
 20
80.0
 11
89.8999999999999915
 21
77.7000000000000171
 72
1
 10
89.8999999999999915
 20
77.7000000000000171
 11
85.9999999999999858
 21
77.7000000000000028
 97
0
 92
1
 93
6
 72
1
 10
86.0
 20
23.0
 11
86.0
 21
75.2999999999999829
 72
1
 10
85.9999999999999858
 20
75.2999999999999829
 11
89.9000000000000057
 21
75.2999999999999972
 72
1
 10
89.9000000000000057
 20
75.2999999999999972
 11
89.9000000000000057
 21
73.0
 72
1
 10
89.9000000000000057
 20
73.0
 11
87.4499999999999886
 21
73.0
 72
1
 10
87.4500000000000028
 20
73.0
 11
87.4500000000000028
 21
23.0
 72
1
 10
87.4500000000000028
 20
23.0
 11
86.0
 21
23.0
 97
0
 75
0
 76
1
 52
0.0
 41
0.3
 77
0
 78
1
 53
45.0
 43
0.0
 44
0.0
 45
-0.0883883476483184
 46
0.0883883476483185
 79
0
 98
0
1001
ACAD
1010
0.0
1020
0.0
1030
0
  0
DIMENSION
  5
C8
100
AcDbEntity
  8
dim
 62
256
370
-1
 48
1.0
  6
BYLAYER
100
AcDbDimension
 10
70.1000000000000085
 20
85.0
 30
0.0
 11
80.0
 21
85.75
 31
0.0
 70
0
 71
8
 72
2
 74
0
 75
0
 41
1.0
 42
0.0
  1

  3
Standard
100
AcDbAlignedDimension
 13
70.1000000000000085
 23
80.0
 33
0.0
 14
89.8999999999999915
 24
80.0
 34
0.0
 50
0.0
100
AcDbRotatedDimension
1001
ACAD
1000
DSTYLE
1002
{
1070
144
1040
1.0
1070
40
1040
1.0
1002
}
  0
DIMENSION
  5
C9
100
AcDbEntity
  8
dim
 62
256
370
-1
 48
1.0
  6
BYLAYER
100
AcDbDimension
 10
74.0
 20
18.0
 30
0.0
 11
80.0
 21
18.75
 31
0.0
 70
0
 71
8
 72
2
 74
0
 75
0
 41
1.0
 42
0.0
  1

  3
Standard
100
AcDbAlignedDimension
 13
74.0
 23
23.0
 33
0.0
 14
85.9999999999999858
 24
23.0
 34
0.0
 50
0.0
100
AcDbRotatedDimension
1001
ACAD
1000
DSTYLE
1002
{
1070
144
1040
1.0
1070
40
1040
1.0
1002
}
  0
DIMENSION
  5
CA
100
AcDbEntity
  8
dim
 62
256
370
-1
 48
1.0
  6
BYLAYER
100
AcDbDimension
 10
72.5500000000000114
 20
16.0
 30
0.0
 11
80.0
 21
16.75
 31
0.0
 70
0
 71
8
 72
2
 74
0
 75
0
 41
1.0
 42
0.0
  1

  3
Standard
100
AcDbAlignedDimension
 13
72.5500000000000114
 23
23.0
 33
0.0
 14
87.4500000000000028
 24
23.0
 34
0.0
 50
0.0
100
AcDbRotatedDimension
1001
ACAD
1000
DSTYLE
1002
{
1070
144
1040
1.0
1070
40
1040
1.0
1002
}
  0
DIMENSION
  5
CB
100
AcDbEntity
  8
dim
 62
256
370
-1
 48
1.0
  6
BYLAYER
100
AcDbDimension
 10
65.0
 20
80.0
 30
0.0
 11
64.25
 21
76.5
 31
0.0
 70
0
 71
8
 72
2
 74
0
 75
0
 41
1.0
 42
0.0
  1

  3
Standard
100
AcDbAlignedDimension
 13
70.1000000000000085
 23
80.0
 33
0.0
 14
70.0999999999999943
 24
73.0
 34
0.0
 50
90.0
100
AcDbRotatedDimension
1001
ACAD
1000
DSTYLE
1002
{
1070
144
1040
1.0
1070
40
1040
1.0
1002
}
  0
DIMENSION
  5
CC
100
AcDbEntity
  8
dim
 62
256
370
-1
 48
1.0
  6
BYLAYER
100
AcDbDimension
 10
65.0
 20
73.0
 30
0.0
 11
64.25
 21
48.0
 31
0.0
 70
0
 71
8
 72
2
 74
0
 75
0
 41
1.0
 42
0.0
  1

  3
Standard
100
AcDbAlignedDimension
 13
70.0999999999999943
 23
73.0
 33
0.0
 14
72.5500000000000114
 24
23.0
 34
0.0
 50
90.0
100
AcDbRotatedDimension
1001
ACAD
1000
DSTYLE
1002
{
1070
144
1040
1.0
1070
40
1040
1.0
1002
}
  0
CIRCLE
  5
CD
100
AcDbEntity
  8
--
 62
256
370
-1
 48
1.0
  6
BYLAYER
100
AcDbCircle
 10
109.9999999999999716
 20
0.0
 30
0.0
 40
6.25
  0
LINE
  5
CE
100
AcDbEntity
  8
--
 62
256
370
-1
 48
1.0
  6
BYLAYER
100
AcDbLine
 10
86.25
 20
0.9999999999999929
 30
0.0
 11
86.25
 21
10.9999999999999858
 31
0.0
  0
LINE
  5
CF
100
AcDbEntity
  8
--
 62
256
370
-1
 48
1.0
  6
BYLAYER
100
AcDbLine
 10
73.75
 20
0.9999999999999928
 30
0.0
 11
73.75
 21
10.9999999999999858
 31
0.0
  0
LINE
  5
D0
100
AcDbEntity
  8
0
 62
256
370
-1
 48
1.0
  6
BYLAYER
100
AcDbLine
 10
73.2000000000000028
 20
0.9999999999999929
 30
0.0
 11
73.2000000000000028
 21
10.9999999999999929
 31
0.0
  0
LINE
  5
D1
100
AcDbEntity
  8
0
 62
256
370
-1
 48
1.0
  6
BYLAYER
100
AcDbLine
 10
86.7999999999999972
 20
0.9999999999999929
 30
0.0
 11
86.7999999999999972
 21
10.9999999999999858
 31
0.0
  0
LINE
  5
D2
100
AcDbEntity
  8
0
 62
256
370
-1
 48
1.0
  6
BYLAYER
100
AcDbLine
 10
73.2000000000000171
 20
10.9999999999999929
 30
0.0
 11
79.5000000000000142
 21
10.9999999999999929
 31
0.0
  0
LINE
  5
D3
100
AcDbEntity
  8
0
 62
256
370
-1
 48
1.0
  6
BYLAYER
100
AcDbLine
 10
86.7999999999999829
 20
10.9999999999999911
 30
0.0
 11
80.4999999999999858
 21
10.9999999999999929
 31
0.0
  0
LINE
  5
D4
100
AcDbEntity
  8
--
 62
256
370
-1
 48
1.0
  6
BYLAYER
100
AcDbLine
 10
73.1999999999999886
 20
-17.0
 30
0.0
 11
73.1999999999999886
 21
-11.9999999999999982
 31
0.0
  0
LINE
  5
D5
100
AcDbEntity
  8
--
 62
256
370
-1
 48
1.0
  6
BYLAYER
100
AcDbLine
 10
86.8000000000000114
 20
-16.9999999999999964
 30
0.0
 11
86.8000000000000114
 21
-12.0
 31
0.0
  0
HATCH
  5
D6
100
AcDbEntity
  8
-
 62
256
370
-1
 48
1.0
  6
BYLAYER
100
AcDbHatch
 10
0.0
 20
0.0
 30
0.0
210
0.0
220
0.0
230
1.0
  2
ANSI31
 70
0
 71
0
 91
2
 92
1
 93
8
 72
1
 10
73.1999999999999886
 20
0.9999999999999929
 11
75.0000000000000142
 21
0.9999999999999929
 72
1
 10
75.0000000000000142
 20
0.9999999999999929
 11
75.0000000000000142
 21
5.9999999999999858
 72
1
 10
75.0000000000000142
 20
5.9999999999999858
 11
79.0
 21
5.9999999999999929
 72
1
 10
79.0
 20
5.9999999999999929
 11
79.0
 21
0.9999999999999929
 72
1
 10
79.0
 20
0.9999999999999929
 11
79.5
 21
1.0
 72
1
 10
79.5
 20
0.9999999999999929
 11
79.5000000000000142
 21
10.9999999999999929
 72
1
 10
79.5000000000000142
 20
10.9999999999999929
 11
73.2000000000000171
 21
10.9999999999999929
 72
1
 10
73.2000000000000028
 20
10.9999999999999929
 11
73.2000000000000028
 21
0.9999999999999929
 97
0
 92
1
 93
8
 72
1
 10
86.7999999999999829
 20
0.9999999999999929
 11
85.0
 21
0.9999999999999929
 72
1
 10
85.0
 20
0.9999999999999929
 11
85.0
 21
5.9999999999999929
 72
1
 10
85.0
 20
5.9999999999999929
 11
81.0
 21
5.9999999999999929
 72
1
 10
81.0
 20
5.9999999999999929
 11
81.0
 21
0.9999999999999929
 72
1
 10
81.0
 20
0.9999999999999929
 11
80.5
 21
0.9999999999999858
 72
1
 10
80.5
 20
0.9999999999999929
 11
80.5
 21
10.9999999999999982
 72
1
 10
80.4999999999999858
 20
10.9999999999999929
 11
86.7999999999999829
 21
10.9999999999999911
 72
1
 10
86.7999999999999972
 20
10.9999999999999858
 11
86.7999999999999972
 21
0.9999999999999929
 97
0
 75
0
 76
1
 52
0.0
 41
0.25
 77
0
 78
1
 53
45.0
 43
0.0
 44
0.0
 45
-0.0883883476483184
 46
0.0883883476483185
 79
0
 98
0
1001
ACAD
1010
0.0
1020
0.0
1030
0
  0
DIMENSION
  5
D7
100
AcDbEntity
  8
dim
 62
256
370
-1
 48
1.0
  6
BYLAYER
100
AcDbDimension
 10
94.0
 20
78.0000000000000142
 30
0.0
 11
93.25
 21
76.5
 31
0.0
 70
0
 71
8
 72
2
 74
0
 75
0
 41
1.0
 42
0.0
  1
M3
  3
Standard
100
AcDbAlignedDimension
 13
89.8999999999999915
 23
78.0000000000000142
 33
0.0
 14
89.9000000000000057
 24
75.0
 34
0.0
 50
90.0
100
AcDbRotatedDimension
1001
ACAD
1000
DSTYLE
1002
{
1070
144
1040
1.0
1070
40
1040
1.0
1002
}
  0
DIMENSION
  5
D8
100
AcDbEntity
  8
dim
 62
256
370
-1
 48
1.0
  6
BYLAYER
100
AcDbDimension
 10
63.0
 20
80.0
 30
0.0
 11
62.25
 21
51.5
 31
0.0
 70
0
 71
8
 72
2
 74
0
 75
0
 41
1.0
 42
0.0
  1

  3
Standard
100
AcDbAlignedDimension
 13
70.1000000000000085
 23
80.0
 33
0.0
 14
72.5500000000000114
 24
23.0
 34
0.0
 50
90.0
100
AcDbRotatedDimension
1001
ACAD
1000
DSTYLE
1002
{
1070
144
1040
1.0
1070
40
1040
1.0
1002
}
  0
ENDSEC
  0
SECTION
  2
OBJECTS
  0
DICTIONARY
  5
C
100
AcDbDictionary
280
0
281
1
  3
ACAD_GROUP
350
D
  3
ACAD_LAYOUT
350
1A
  3
ACAD_MLINESTYLE
350
17
  3
ACAD_PLOTSETTINGS
350
19
  3
ACAD_PLOTSTYLENAME
350
E
  3
AcDbVariableDictionary
350
D9
  3
QCAD_OBJECTS
350
DA
  0
DICTIONARY
  5
D
100
AcDbDictionary
280
0
281
1
  0
ACDBDICTIONARYWDFLT
  5
E
100
AcDbDictionary
281
1
  3
Normal
350
F
100
AcDbDictionaryWithDefault
340
F
  0
ACDBPLACEHOLDER
  5
F
  0
DICTIONARY
  5
17
100
AcDbDictionary
280
0
281
1
  3
Standard
350
18
  0
MLINESTYLE
  5
18
100
AcDbMlineStyle
  2
STANDARD
 70
0
  3

 62
256
 51
90.0
 52
90.0
 71
2
 49
0.5
 62
256
  6
BYLAYER
 49
-0.5
 62
256
  6
BYLAYER
  0
DICTIONARY
  5
19
100
AcDbDictionary
280
0
281
1
  0
DICTIONARY
  5
1A
100
AcDbDictionary
281
1
  3
Layout1
350
1E
  3
Layout2
350
26
  3
Model
350
22
  0
LAYOUT
  5
1E
100
AcDbPlotSettings
  1

  2
none_device
  4

  6

 40
0.0
 41
0.0
 42
0.0
 43
0.0
 44
0.0
 45
0.0
 46
0.0
 47
0.0
 48
0.0
 49
0.0
140
0.0
141
0.0
142
1.0
143
1.0
 70
688
 72
0
 73
0
 74
5
  7

 75
16
147
1.0
148
0.0
149
0.0
100
AcDbLayout
  1
Layout1
 70
1
 71
1
 10
0.0
 20
0.0
 11
420.0
 21
297.0
 12
0.0
 22
0.0
 32
0.0
 14
100000000000000000000.0
 24
100000000000000000000.0
 34
100000000000000000000.0
 15
-100000000000000000000.0
 25
-100000000000000000000.0
 35
-100000000000000000000.0
146
0.0
 13
0.0
 23
0.0
 33
0.0
 16
1.0
 26
0.0
 36
0.0
 17
0.0
 27
1.0
 37
0.0
 76
0
330
1B
  0
LAYOUT
  5
22
100
AcDbPlotSettings
  1

  2
none_device
  4

  6

 40
0.0
 41
0.0
 42
0.0
 43
0.0
 44
0.0
 45
0.0
 46
0.0
 47
0.0
 48
0.0
 49
0.0
140
0.0
141
0.0
142
1.0
143
1.0
 70
1712
 72
0
 73
0
 74
0
  7

 75
0
147
1.0
148
0.0
149
0.0
100
AcDbLayout
  1
Model
 70
1
 71
0
 10
0.0
 20
0.0
 11
12.0
 21
9.0
 12
0.0
 22
0.0
 32
0.0
 14
0.0
 24
0.0
 34
0.0
 15
0.0
 25
0.0
 35
0.0
146
0.0
 13
0.0
 23
0.0
 33
0.0
 16
1.0
 26
0.0
 36
0.0
 17
0.0
 27
1.0
 37
0.0
 76
0
330
1F
  0
LAYOUT
  5
26
100
AcDbPlotSettings
  1

  2
none_device
  4

  6

 40
0.0
 41
0.0
 42
0.0
 43
0.0
 44
0.0
 45
0.0
 46
0.0
 47
0.0
 48
0.0
 49
0.0
140
0.0
141
0.0
142
1.0
143
1.0
 70
688
 72
0
 73
0
 74
5
  7

 75
16
147
1.0
148
0.0
149
0.0
100
AcDbLayout
  1
Layout2
 70
1
 71
2
 10
0.0
 20
0.0
 11
12.0
 21
9.0
 12
0.0
 22
0.0
 32
0.0
 14
0.0
 24
0.0
 34
0.0
 15
0.0
 25
0.0
 35
0.0
146
0.0
 13
0.0
 23
0.0
 33
0.0
 16
1.0
 26
0.0
 36
0.0
 17
0.0
 27
1.0
 37
0.0
 76
0
330
23
  0
DICTIONARY
  5
D9
100
AcDbDictionary
281
1
  3
DIMASSOC
350
DC
  3
HIDETEXT
350
DB
  0
DICTIONARYVAR
  5
DB
100
DictionaryVariables
280
0
  1
2
  0
DICTIONARYVAR
  5
DC
100
DictionaryVariables
280
0
  1
1
  0
DICTIONARY
  5
DA
100
AcDbDictionary
281
1
  3
ColorSettings/BackgroundColor
350
DD
  3
ColorSettings/ColorMode
350
DE
  3
DimensionSettings/AngularFormat
350
DF
  3
DimensionSettings/AngularPrecision
350
E0
  3
DimensionSettings/DecimalPoint
350
E1
  3
DimensionSettings/DimensionFont
350
E2
  3
DimensionSettings/DimensionTextColor
350
E3
  3
DimensionSettings/KeepProportions
350
E4
  3
DimensionSettings/LinearFormat
350
E5
  3
DimensionSettings/LinearPrecision
350
E6
  3
Grid/DisplayGrid00
350
E7
  3
Grid/DisplayGrid01
350
E8
  3
Grid/DisplayGrid02
350
E9
  3
Grid/DisplayGrid03
350
EA
  3
Grid/GridSpacingX00
350
EB
  3
Grid/GridSpacingX01
350
EC
  3
Grid/GridSpacingX02
350
ED
  3
Grid/GridSpacingX03
350
EE
  3
Grid/GridSpacingY00
350
EF
  3
Grid/GridSpacingY01
350
F0
  3
Grid/GridSpacingY02
350
F1
  3
Grid/GridSpacingY03
350
F2
  3
Grid/IsometricGrid00
350
F3
  3
Grid/IsometricGrid01
350
F4
  3
Grid/IsometricGrid02
350
F5
  3
Grid/IsometricGrid03
350
F6
  3
Grid/IsometricProjection00
350
F7
  3
Grid/IsometricProjection01
350
F8
  3
Grid/IsometricProjection02
350
F9
  3
Grid/IsometricProjection03
350
FA
  3
Grid/MetaGridSpacingX00
350
FB
  3
Grid/MetaGridSpacingX01
350
FC
  3
Grid/MetaGridSpacingX02
350
FD
  3
Grid/MetaGridSpacingX03
350
FE
  3
Grid/MetaGridSpacingY00
350
FF
  3
Grid/MetaGridSpacingY01
350
100
  3
Grid/MetaGridSpacingY02
350
101
  3
Grid/MetaGridSpacingY03
350
102
  3
MultiPageSettings/Columns
350
103
  3
MultiPageSettings/GlueMarginsBottom
350
104
  3
MultiPageSettings/GlueMarginsLeft
350
105
  3
MultiPageSettings/GlueMarginsRight
350
106
  3
MultiPageSettings/GlueMarginsTop
350
107
  3
MultiPageSettings/PrintCropMarks
350
108
  3
MultiPageSettings/Rows
350
109
  3
PageSettings/OffsetX
350
10A
  3
PageSettings/OffsetY
350
10B
  3
PageSettings/PageOrientation
350
10C
  3
PageSettings/PaperHeight
350
10D
  3
PageSettings/PaperWidth
350
10E
  3
PageSettings/Scale
350
10F
  3
PageSettings/ShowPaperBorders
350
110
  3
PageTagSettings/EnablePageTags
350
111
  3
PageTagSettings/TagAlignment
350
112
  3
PageTagSettings/TagFont
350
113
  3
PageTagSettings/TagPosition
350
114
  3
QCADVersion
350
115
  3
UnitSettings/PaperUnit
350
116
  3
ViewportCenter
350
117
  3
ViewportHeight
350
118
  3
ViewportWidth
350
119
  0
XRECORD
  5
DD
330
DA
100
AcDbXrecord
280
1
1000
White
  0
XRECORD
  5
DE
330
DA
100
AcDbXrecord
280
1
1000
FullColor
  0
XRECORD
  5
DF
330
DA
100
AcDbXrecord
280
1
 90
0
  0
XRECORD
  5
E0
330
DA
100
AcDbXrecord
280
1
 90
0
  0
XRECORD
  5
E1
330
DA
100
AcDbXrecord
280
1
 90
46
  0
XRECORD
  5
E2
330
DA
100
AcDbXrecord
280
1
1000
DejaVu Sans
  0
XRECORD
  5
E3
330
DA
100
AcDbXrecord
280
1
1000
By Layer
  0
XRECORD
  5
E4
330
DA
100
AcDbXrecord
280
1
290
1
  0
XRECORD
  5
E5
330
DA
100
AcDbXrecord
280
1
 90
2
  0
XRECORD
  5
E6
330
DA
100
AcDbXrecord
280
1
 90
4
  0
XRECORD
  5
E7
330
DA
100
AcDbXrecord
280
1
290
1
  0
XRECORD
  5
E8
330
DA
100
AcDbXrecord
280
1
290
1
  0
XRECORD
  5
E9
330
DA
100
AcDbXrecord
280
1
290
1
  0
XRECORD
  5
EA
330
DA
100
AcDbXrecord
280
1
290
1
  0
XRECORD
  5
EB
330
DA
100
AcDbXrecord
280
1
1000
auto
  0
XRECORD
  5
EC
330
DA
100
AcDbXrecord
280
1
1000
auto
  0
XRECORD
  5
ED
330
DA
100
AcDbXrecord
280
1
1000
auto
  0
XRECORD
  5
EE
330
DA
100
AcDbXrecord
280
1
1000
auto
  0
XRECORD
  5
EF
330
DA
100
AcDbXrecord
280
1
1000
auto
  0
XRECORD
  5
F0
330
DA
100
AcDbXrecord
280
1
1000
auto
  0
XRECORD
  5
F1
330
DA
100
AcDbXrecord
280
1
1000
auto
  0
XRECORD
  5
F2
330
DA
100
AcDbXrecord
280
1
1000
auto
  0
XRECORD
  5
F3
330
DA
100
AcDbXrecord
280
1
290
0
  0
XRECORD
  5
F4
330
DA
100
AcDbXrecord
280
1
290
0
  0
XRECORD
  5
F5
330
DA
100
AcDbXrecord
280
1
290
0
  0
XRECORD
  5
F6
330
DA
100
AcDbXrecord
280
1
290
0
  0
XRECORD
  5
F7
330
DA
100
AcDbXrecord
280
1
 90
65537
  0
XRECORD
  5
F8
330
DA
100
AcDbXrecord
280
1
 90
65537
  0
XRECORD
  5
F9
330
DA
100
AcDbXrecord
280
1
 90
65537
  0
XRECORD
  5
FA
330
DA
100
AcDbXrecord
280
1
 90
65537
  0
XRECORD
  5
FB
330
DA
100
AcDbXrecord
280
1
1000
auto
  0
XRECORD
  5
FC
330
DA
100
AcDbXrecord
280
1
1000
auto
  0
XRECORD
  5
FD
330
DA
100
AcDbXrecord
280
1
1000
auto
  0
XRECORD
  5
FE
330
DA
100
AcDbXrecord
280
1
1000
auto
  0
XRECORD
  5
FF
330
DA
100
AcDbXrecord
280
1
1000
auto
  0
XRECORD
  5
100
330
DA
100
AcDbXrecord
280
1
1000
auto
  0
XRECORD
  5
101
330
DA
100
AcDbXrecord
280
1
1000
auto
  0
XRECORD
  5
102
330
DA
100
AcDbXrecord
280
1
1000
auto
  0
XRECORD
  5
103
330
DA
100
AcDbXrecord
280
1
 90
1
  0
XRECORD
  5
104
330
DA
100
AcDbXrecord
280
1
 40
10.0
  0
XRECORD
  5
105
330
DA
100
AcDbXrecord
280
1
 40
10.0
  0
XRECORD
  5
106
330
DA
100
AcDbXrecord
280
1
 40
10.0
  0
XRECORD
  5
107
330
DA
100
AcDbXrecord
280
1
 40
10.0
  0
XRECORD
  5
108
330
DA
100
AcDbXrecord
280
1
290
0
  0
XRECORD
  5
109
330
DA
100
AcDbXrecord
280
1
 90
1
  0
XRECORD
  5
10A
330
DA
100
AcDbXrecord
280
1
 40
52.5043767999999034
  0
XRECORD
  5
10B
330
DA
100
AcDbXrecord
280
1
 40
-51.870511585185227
  0
XRECORD
  5
10C
330
DA
100
AcDbXrecord
280
1
1000
Portrait
  0
XRECORD
  5
10D
330
DA
100
AcDbXrecord
280
1
 40
297.0
  0
XRECORD
  5
10E
330
DA
100
AcDbXrecord
280
1
 40
210.0
  0
XRECORD
  5
10F
330
DA
100
AcDbXrecord
280
1
1000
2:1
  0
XRECORD
  5
110
330
DA
100
AcDbXrecord
280
1
290
1
  0
XRECORD
  5
111
330
DA
100
AcDbXrecord
280
1
290
0
  0
XRECORD
  5
112
330
DA
100
AcDbXrecord
280
1
1000
Inside
  0
XRECORD
  5
113
330
DA
100
AcDbXrecord
280
1
1000
Arial,10,-1,5,50,0,0,0,0,0
  0
XRECORD
  5
114
330
DA
100
AcDbXrecord
280
1
1000
TopLeft
  0
XRECORD
  5
115
330
DA
100
AcDbXrecord
280
1
1000
3.27.1
  0
XRECORD
  5
116
330
DA
100
AcDbXrecord
280
1
 90
4
  0
XRECORD
  5
118
330
DA
100
AcDbXrecord
280
1
 40
134.3310288065844986
  0
XRECORD
  5
119
330
DA
100
AcDbXrecord
280
1
 40
252.2168930041154624
  0
ENDSEC
  0
EOF
