999
dxflib 3.26.4.0
  0
SECTION
  2
HEADER
  9
$ACADVER
  1
AC1015
  9
$HANDSEED
  5
FFFF
  9
$DIMADEC
 70
0
  9
$DIMASZ
 40
1.0
  9
$DIMATFIT
 70
0
  9
$DIMAUNIT
 70
0
  9
$DIMAZIN
 70
2
  9
$DIMBLK
  1

  9
$DIMDEC
 70
4
  9
$DIMDLI
 40
2.0
  9
$DIMDSEP
 70
46
  9
$DIMEXE
 40
0.5
  9
$DIMEXO
 40
0.25
  9
$DIMGAP
 40
0.25
  9
$DIMLFAC
 40
1.0
  9
$DIMLUNIT
 70
2
  9
$DIMSCALE
 40
1.0
  9
$DIMTAD
 70
1
  9
$DIMTIH
 70
0
  9
$DIMTSZ
 40
0.0
  9
$DIMTXT
 40
1.0
  9
$DIMZIN
 70
8
  9
$DWGCODEPAGE
  3
ANSI_1252
  9
$INSUNITS
 70
4
  9
$LTSCALE
 40
1.0
  9
$MAXACTVP
 70
64
  9
$MEASUREMENT
 70
1
  9
$MIRRTEXT
 70
0
  9
$PDMODE
 70
0
  9
$PDSIZE
 40
0.0
  0
ENDSEC
  0
SECTION
  2
TABLES
  0
TABLE
  2
VPORT
  5
8
100
AcDbSymbolTable
 70
1
  0
VPORT
  5
30
100
AcDbSymbolTableRecord
100
AcDbViewportTableRecord
  2
*Active
 70
0
 10
0.0
 20
0.0
 11
1.0
 21
1.0
 12
286.3055555555554861
 22
148.5
 13
0.0
 23
0.0
 14
10.0
 24
10.0
 15
10.0
 25
10.0
 16
0.0
 26
0.0
 36
1.0
 17
0.0
 27
0.0
 37
0.0
 40
297.0
 41
1.92798353909465
 42
50.0
 43
0.0
 44
0.0
 50
0.0
 51
0.0
 71
0
 72
100
 73
1
 74
3
 75
1
 76
1
 77
0
 78
0
281
0
 65
1
110
0.0
120
0.0
130
0.0
111
1.0
121
0.0
131
0.0
112
0.0
122
1.0
132
0.0
 79
0
146
0.0
  0
ENDTAB
  0
TABLE
  2
LTYPE
  5
5
100
AcDbSymbolTable
 70
41
  0
LTYPE
  5
16
100
AcDbSymbolTableRecord
100
AcDbLinetypeTableRecord
  2
Continuous
 70
0
  3
Solid line
 72
65
 73
0
 40
0.0
  0
LTYPE
  5
31
100
AcDbSymbolTableRecord
100
AcDbLinetypeTableRecord
  2
ACAD_ISO08W100
 70
0
  3
ISO long-dash short-dash ____ __ ____ __ ____ _
 72
65
 73
4
 40
36.0
 49
24.0
 74
0
 49
-3.0
 74
0
 49
6.0
 74
0
 49
-3.0
 74
0
  0
LTYPE
  5
32
100
AcDbSymbolTableRecord
100
AcDbLinetypeTableRecord
  2
PHANTOM2
 70
0
  3
Phantom (.5x) ___ _ _ ___ _ _ ___ _ _ ___ _ _
 72
65
 73
6
 40
31.7500000000000036
 49
15.875
 74
0
 49
-3.1749999999999998
 74
0
 49
3.1749999999999998
 74
0
 49
-3.1749999999999998
 74
0
 49
3.1749999999999998
 74
0
 49
-3.1749999999999998
 74
0
  0
LTYPE
  5
33
100
AcDbSymbolTableRecord
100
AcDbLinetypeTableRecord
  2
ACAD_ISO07W100
 70
0
  3
ISO dot . . . . . . . . . . . . . . . . . . . . 
 72
65
 73
2
 40
3.0
 49
0.0
 74
0
 49
-3.0
 74
0
  0
LTYPE
  5
34
100
AcDbSymbolTableRecord
100
AcDbLinetypeTableRecord
  2
ACAD_ISO06W100
 70
0
  3
ISO long-dash triple-dot ____ ... ____ ... ____
 72
65
 73
8
 40
36.0
 49
24.0
 74
0
 49
-3.0
 74
0
 49
0.0
 74
0
 49
-3.0
 74
0
 49
0.0
 74
0
 49
-3.0
 74
0
 49
0.0
 74
0
 49
-3.0
 74
0
  0
LTYPE
  5
35
100
AcDbSymbolTableRecord
100
AcDbLinetypeTableRecord
  2
DASHEDX2
 70
0
  3
Dashed (2x) ____  ____  ____  ____  ____  ___
 72
65
 73
2
 40
38.0999999999999943
 49
25.3999999999999986
 74
0
 49
-12.6999999999999993
 74
0
  0
LTYPE
  5
36
100
AcDbSymbolTableRecord
100
AcDbLinetypeTableRecord
  2
ACAD_ISO04W100
 70
0
  3
ISO long-dash dot ____ . ____ . ____ . ____ . _
 72
65
 73
4
 40
30.0
 49
24.0
 74
0
 49
-3.0
 74
0
 49
0.0
 74
0
 49
-3.0
 74
0
  0
LTYPE
  5
37
100
AcDbSymbolTableRecord
100
AcDbLinetypeTableRecord
  2
HIDDENX2
 70
0
  3
Hidden (2x) ____ ____ ____ ____ ____ ____ ____ 
 72
65
 73
2
 40
19.0499999999999972
 49
12.6999999999999993
 74
0
 49
-6.3499999999999996
 74
0
  0
LTYPE
  5
38
100
AcDbSymbolTableRecord
100
AcDbLinetypeTableRecord
  2
ACAD_ISO02W100
 70
0
  3
ISO dash __ __ __ __ __ __ __ __ __ __ __ __ __
 72
65
 73
2
 40
15.0
 49
12.0
 74
0
 49
-3.0
 74
0
  0
LTYPE
  5
39
100
AcDbSymbolTableRecord
100
AcDbLinetypeTableRecord
  2
ACAD_ISO13W100
 70
0
  3
ISO double-dash double-dot __ __ . . __ __ . . _
 72
65
 73
8
 40
36.0
 49
12.0
 74
0
 49
-3.0
 74
0
 49
12.0
 74
0
 49
-3.0
 74
0
 49
0.0
 74
0
 49
-3.0
 74
0
 49
0.0
 74
0
 49
-3.0
 74
0
  0
LTYPE
  5
3A
100
AcDbSymbolTableRecord
100
AcDbLinetypeTableRecord
  2
DASHED
 70
0
  3
Dashed __ __ __ __ __ __ __ __ __ __ __ __ __ _
 72
65
 73
2
 40
19.0499999999999972
 49
12.6999999999999993
 74
0
 49
-6.3499999999999996
 74
0
  0
LTYPE
  5
3B
100
AcDbSymbolTableRecord
100
AcDbLinetypeTableRecord
  2
DIVIDE
 70
0
  3
Divide ____ . . ____ . . ____ . . ____ . . ____
 72
65
 73
6
 40
31.75
 49
12.6999999999999993
 74
0
 49
-6.3499999999999996
 74
0
 49
0.0
 74
0
 49
-6.3499999999999996
 74
0
 49
0.0
 74
0
 49
-6.3499999999999996
 74
0
  0
LTYPE
  5
3C
100
AcDbSymbolTableRecord
100
AcDbLinetypeTableRecord
  2
DASHDOTX2
 70
0
  3
Dash dot (2x) ____  .  ____  .  ____  .  ___
 72
65
 73
4
 40
50.7999999999999972
 49
25.3999999999999986
 74
0
 49
-12.6999999999999993
 74
0
 49
0.0
 74
0
 49
-12.6999999999999993
 74
0
  0
LTYPE
  5
3D
100
AcDbSymbolTableRecord
100
AcDbLinetypeTableRecord
  2
ACAD_ISO11W100
 70
0
  3
ISO double-dash dot __ __ . __ __ . __ __ . __ _
 72
65
 73
6
 40
33.0
 49
12.0
 74
0
 49
-3.0
 74
0
 49
12.0
 74
0
 49
-3.0
 74
0
 49
0.0
 74
0
 49
-3.0
 74
0
  0
LTYPE
  5
3E
100
AcDbSymbolTableRecord
100
AcDbLinetypeTableRecord
  2
ACAD_ISO10W100
 70
0
  3
ISO dash dot __ . __ . __ . __ . __ . __ . __ . 
 72
65
 73
4
 40
18.0
 49
12.0
 74
0
 49
-3.0
 74
0
 49
0.0
 74
0
 49
-3.0
 74
0
  0
LTYPE
  5
3F
100
AcDbSymbolTableRecord
100
AcDbLinetypeTableRecord
  2
DOT2
 70
0
  3
Dot (.5x) ........................................
 72
65
 73
2
 40
3.1749999999999998
 49
0.0
 74
0
 49
-3.1749999999999998
 74
0
  0
LTYPE
  5
40
100
AcDbSymbolTableRecord
100
AcDbLinetypeTableRecord
  2
DASHDOT2
 70
0
  3
Dash dot (.5x) _._._._._._._._._._._._._._._.
 72
65
 73
4
 40
12.6999999999999993
 49
6.3499999999999996
 74
0
 49
-3.1749999999999998
 74
0
 49
0.0
 74
0
 49
-3.1749999999999998
 74
0
  0
LTYPE
  5
41
100
AcDbSymbolTableRecord
100
AcDbLinetypeTableRecord
  2
BORDER
 70
0
  3
Border __ __ . __ __ . __ __ . __ __ . __ __ .
 72
65
 73
6
 40
44.4499999999999957
 49
12.6999999999999993
 74
0
 49
-6.3499999999999996
 74
0
 49
12.6999999999999993
 74
0
 49
-6.3499999999999996
 74
0
 49
0.0
 74
0
 49
-6.3499999999999996
 74
0
  0
LTYPE
  5
42
100
AcDbSymbolTableRecord
100
AcDbLinetypeTableRecord
  2
DIVIDEX2
 70
0
  3
Divide (2x) ________  .  .  ________  .  .  _
 72
65
 73
6
 40
63.5
 49
25.3999999999999986
 74
0
 49
-12.6999999999999993
 74
0
 49
0.0
 74
0
 49
-12.6999999999999993
 74
0
 49
0.0
 74
0
 49
-12.6999999999999993
 74
0
  0
LTYPE
  5
43
100
AcDbSymbolTableRecord
100
AcDbLinetypeTableRecord
  2
ACAD_ISO14W100
 70
0
  3
ISO dash triple-dot __ . . . __ . . . __ . . . _
 72
65
 73
8
 40
24.0
 49
12.0
 74
0
 49
-3.0
 74
0
 49
0.0
 74
0
 49
-3.0
 74
0
 49
0.0
 74
0
 49
-3.0
 74
0
 49
0.0
 74
0
 49
-3.0
 74
0
  0
LTYPE
  5
44
100
AcDbSymbolTableRecord
100
AcDbLinetypeTableRecord
  2
CENTER2
 70
0
  3
Center (.5x) ___ _ ___ _ ___ _ ___ _ ___ _ ___
 72
65
 73
4
 40
28.5750000000000028
 49
19.0500000000000007
 74
0
 49
-3.1749999999999998
 74
0
 49
3.1749999999999998
 74
0
 49
-3.1749999999999998
 74
0
  0
LTYPE
  5
45
100
AcDbSymbolTableRecord
100
AcDbLinetypeTableRecord
  2
DIVIDE2
 70
0
  3
Divide (.5x) __..__..__..__..__..__..__..__.._
 72
65
 73
6
 40
15.875
 49
6.3499999999999996
 74
0
 49
-3.1749999999999998
 74
0
 49
0.0
 74
0
 49
-3.1749999999999998
 74
0
 49
0.0
 74
0
 49
-3.1749999999999998
 74
0
  0
LTYPE
  5
46
100
AcDbSymbolTableRecord
100
AcDbLinetypeTableRecord
  2
ACAD_ISO09W100
 70
0
  3
ISO long-dash double-short-dash ____ __ __ ____
 72
65
 73
6
 40
45.0
 49
24.0
 74
0
 49
-3.0
 74
0
 49
6.0
 74
0
 49
-3.0
 74
0
 49
6.0
 74
0
 49
-3.0
 74
0
  0
LTYPE
  5
47
100
AcDbSymbolTableRecord
100
AcDbLinetypeTableRecord
  2
HIDDEN2
 70
0
  3
Hidden (.5x) _ _ _ _ _ _ _ _ _ _ _ _ _ _ _ _ _ 
 72
65
 73
2
 40
4.7624999999999993
 49
3.1749999999999998
 74
0
 49
-1.5874999999999999
 74
0
  0
LTYPE
  5
48
100
AcDbSymbolTableRecord
100
AcDbLinetypeTableRecord
  2
ACAD_ISO12W100
 70
0
  3
ISO dash double-dot __ . . __ . . __ . . __ . . 
 72
65
 73
6
 40
21.0
 49
12.0
 74
0
 49
-3.0
 74
0
 49
0.0
 74
0
 49
-3.0
 74
0
 49
0.0
 74
0
 49
-3.0
 74
0
  0
LTYPE
  5
49
100
AcDbSymbolTableRecord
100
AcDbLinetypeTableRecord
  2
DASHED2
 70
0
  3
Dashed (.5x) _ _ _ _ _ _ _ _ _ _ _ _ _ _ _ _ _ 
 72
65
 73
2
 40
9.5249999999999986
 49
6.3499999999999996
 74
0
 49
-3.1749999999999998
 74
0
  0
LTYPE
  5
4A
100
AcDbSymbolTableRecord
100
AcDbLinetypeTableRecord
  2
DASHDOT
 70
0
  3
Dash dot __ . __ . __ . __ . __ . __ . __ . __
 72
65
 73
4
 40
25.3999999999999986
 49
12.6999999999999993
 74
0
 49
-6.3499999999999996
 74
0
 49
0.0
 74
0
 49
-6.3499999999999996
 74
0
  0
LTYPE
  5
4B
100
AcDbSymbolTableRecord
100
AcDbLinetypeTableRecord
  2
DOT
 70
0
  3
Dot . . . . . . . . . . . . . . . . . . . . . . . .
 72
65
 73
2
 40
6.3499999999999996
 49
0.0
 74
0
 49
-6.3499999999999996
 74
0
  0
LTYPE
  5
4C
100
AcDbSymbolTableRecord
100
AcDbLinetypeTableRecord
  2
BORDERX2
 70
0
  3
Border (2x) ____  ____  .  ____  ____  .  ___
 72
65
 73
6
 40
88.8999999999999915
 49
25.3999999999999986
 74
0
 49
-12.6999999999999993
 74
0
 49
25.3999999999999986
 74
0
 49
-12.6999999999999993
 74
0
 49
0.0
 74
0
 49
-12.6999999999999993
 74
0
  0
LTYPE
  5
4D
100
AcDbSymbolTableRecord
100
AcDbLinetypeTableRecord
  2
ACAD_ISO15W100
 70
0
  3
ISO double-dash triple-dot __ __ . . . __ __ . .
 72
65
 73
10
 40
39.0
 49
12.0
 74
0
 49
-3.0
 74
0
 49
12.0
 74
0
 49
-3.0
 74
0
 49
0.0
 74
0
 49
-3.0
 74
0
 49
0.0
 74
0
 49
-3.0
 74
0
 49
0.0
 74
0
 49
-3.0
 74
0
  0
LTYPE
  5
4E
100
AcDbSymbolTableRecord
100
AcDbLinetypeTableRecord
  2
ACAD_ISO05W100
 70
0
  3
ISO long-dash double-dot ____ .. ____ .. ____ . 
 72
65
 73
6
 40
33.0
 49
24.0
 74
0
 49
-3.0
 74
0
 49
0.0
 74
0
 49
-3.0
 74
0
 49
0.0
 74
0
 49
-3.0
 74
0
  0
LTYPE
  5
4F
100
AcDbSymbolTableRecord
100
AcDbLinetypeTableRecord
  2
PHANTOMX2
 70
0
  3
Phantom (2x) ____________    ____    ____   _
 72
65
 73
6
 40
127.0000000000000142
 49
63.5
 74
0
 49
-12.6999999999999993
 74
0
 49
12.6999999999999993
 74
0
 49
-12.6999999999999993
 74
0
 49
12.6999999999999993
 74
0
 49
-12.6999999999999993
 74
0
  0
LTYPE
  5
50
100
AcDbSymbolTableRecord
100
AcDbLinetypeTableRecord
  2
CENTERX2
 70
0
  3
Center (2x) ________  __  ________  __  _____
 72
65
 73
4
 40
101.6000000000000085
 49
63.5
 74
0
 49
-12.6999999999999993
 74
0
 49
12.6999999999999993
 74
0
 49
-12.6999999999999993
 74
0
  0
LTYPE
  5
51
100
AcDbSymbolTableRecord
100
AcDbLinetypeTableRecord
  2
CENTER
 70
0
  3
Center ____ _ ____ _ ____ _ ____ _ ____ _ ____
 72
65
 73
4
 40
50.8000000000000043
 49
31.75
 74
0
 49
-6.3499999999999996
 74
0
 49
6.3499999999999996
 74
0
 49
-6.3499999999999996
 74
0
  0
LTYPE
  5
52
100
AcDbSymbolTableRecord
100
AcDbLinetypeTableRecord
  2
HIDDEN
 70
0
  3
Hidden __ __ __ __ __ __ __ __ __ __ __ __ __ __
 72
65
 73
2
 40
9.5249999999999986
 49
6.3499999999999996
 74
0
 49
-3.1749999999999998
 74
0
  0
LTYPE
  5
14
100
AcDbSymbolTableRecord
100
AcDbLinetypeTableRecord
  2
BYBLOCK
 70
0
  3

 72
65
 73
0
 40
0.0
  0
LTYPE
  5
53
100
AcDbSymbolTableRecord
100
AcDbLinetypeTableRecord
  2
ACAD_ISO03W100
 70
0
  3
ISO dash space __    __    __    __    __    __
 72
65
 73
2
 40
30.0
 49
12.0
 74
0
 49
-18.0
 74
0
  0
LTYPE
  5
15
100
AcDbSymbolTableRecord
100
AcDbLinetypeTableRecord
  2
BYLAYER
 70
0
  3

 72
65
 73
0
 40
0.0
  0
LTYPE
  5
54
100
AcDbSymbolTableRecord
100
AcDbLinetypeTableRecord
  2
DOTX2
 70
0
  3
Dot (2x) .  .  .  .  .  .  .  .  .  .  .  .  .  .
 72
65
 73
2
 40
12.6999999999999993
 49
0.0
 74
0
 49
-12.6999999999999993
 74
0
  0
LTYPE
  5
55
100
AcDbSymbolTableRecord
100
AcDbLinetypeTableRecord
  2
PHANTOM
 70
0
  3
Phantom ______  __  __  ______  __  __  ______ 
 72
65
 73
6
 40
63.5000000000000071
 49
31.75
 74
0
 49
-6.3499999999999996
 74
0
 49
6.3499999999999996
 74
0
 49
-6.3499999999999996
 74
0
 49
6.3499999999999996
 74
0
 49
-6.3499999999999996
 74
0
  0
LTYPE
  5
56
100
AcDbSymbolTableRecord
100
AcDbLinetypeTableRecord
  2
BORDER2
 70
0
  3
Border (.5x) __.__.__.__.__.__.__.__.__.__.__.
 72
65
 73
6
 40
22.2249999999999979
 49
6.3499999999999996
 74
0
 49
-3.1749999999999998
 74
0
 49
6.3499999999999996
 74
0
 49
-3.1749999999999998
 74
0
 49
0.0
 74
0
 49
-3.1749999999999998
 74
0
  0
ENDTAB
  0
TABLE
  2
LAYER
  5
2
100
AcDbSymbolTable
 70
4
  0
LAYER
  5
57
100
AcDbSymbolTableRecord
100
AcDbLayerTableRecord
  2
dim
 70
0
 62
252
420
10526884
  6
Continuous
370
25
390
F
  0
LAYER
  5
58
100
AcDbSymbolTableRecord
100
AcDbLayerTableRecord
  2
-
 70
0
 62
7
420
0
  6
Continuous
370
18
390
F
  0
LAYER
  5
59
100
AcDbSymbolTableRecord
100
AcDbLayerTableRecord
  2
-.-
 70
0
 62
7
420
0
  6
ACAD_ISO10W100
370
18
390
F
  0
LAYER
  5
10
100
AcDbSymbolTableRecord
100
AcDbLayerTableRecord
  2
0
 70
0
 62
7
420
0
  6
Continuous
370
35
390
F
  0
ENDTAB
  0
TABLE
  2
STYLE
  5
3
100
AcDbSymbolTable
 70
3
  0
STYLE
  5
5A
100
AcDbSymbolTableRecord
100
AcDbTextStyleTableRecord
  2
Standard
 70
0
 40
0.0
 41
1.0
 50
0.0
 71
0
 42
2.5
  3

  4

1001
ACAD
1000
txt
1071
0
  0
STYLE
  5
5B
100
AcDbSymbolTableRecord
100
AcDbTextStyleTableRecord
  2
textstyle0
 70
0
 40
0.0
 41
1.0
 50
0.0
 71
0
 42
1.0
  3

  4

1001
ACAD
1000
Liberation Sans
1071
33554432
  0
STYLE
  5
5C
100
AcDbSymbolTableRecord
100
AcDbTextStyleTableRecord
  2
textstyle1
 70
0
 40
0.0
 41
1.0
 50
0.0
 71
0
 42
1.0
  3

  4

1001
ACAD
1000
Liberation Sans
1071
33554432
  0
ENDTAB
  0
TABLE
  2
VIEW
  5
6
100
AcDbSymbolTable
 70
0
  0
ENDTAB
  0
TABLE
  2
UCS
  5
7
100
AcDbSymbolTable
 70
0
  0
ENDTAB
  0
TABLE
  2
APPID
  5
9
100
AcDbSymbolTable
 70
1
  0
APPID
  5
12
100
AcDbSymbolTableRecord
100
AcDbRegAppTableRecord
  2
ACAD
 70
0
  0
APPID
  5
5D
100
AcDbSymbolTableRecord
100
AcDbRegAppTableRecord
  2
QCAD
 70
0
  0
ENDTAB
  0
TABLE
  2
DIMSTYLE
  5
A
100
AcDbSymbolTable
 70
1
100
AcDbDimStyleTable
 71
0
  0
DIMSTYLE
105
27
100
AcDbSymbolTableRecord
100
AcDbDimStyleTableRecord
  2
Standard
 41
1.0
 42
0.25
 43
3.75
 44
0.5
 70
0
 73
0
 74
0
 77
1
 78
8
140
1.0
141
2.5
143
0.03937007874016
147
0.25
171
3
172
1
271
2
272
2
274
3
278
44
283
0
284
8
340
5A
  0
ENDTAB
  0
TABLE
  2
BLOCK_RECORD
  5
1
100
AcDbSymbolTable
 70
1
  0
BLOCK_RECORD
  5
1F
100
AcDbSymbolTableRecord
100
AcDbBlockTableRecord
  2
*Model_Space
340
22
  0
BLOCK_RECORD
  5
1B
100
AcDbSymbolTableRecord
100
AcDbBlockTableRecord
  2
*Paper_Space
340
1E
  0
BLOCK_RECORD
  5
23
100
AcDbSymbolTableRecord
100
AcDbBlockTableRecord
  2
*Paper_Space0
340
26
  0
ENDTAB
  0
ENDSEC
  0
SECTION
  2
BLOCKS
  0
BLOCK
  5
20
100
AcDbEntity
  8
0
100
AcDbBlockBegin
  2
*Model_Space
 70
0
 10
0.0
 20
0.0
 30
0.0
  3
*Model_Space
  1

  0
ENDBLK
  5
21
100
AcDbEntity
  8
0
100
AcDbBlockEnd
  0
BLOCK
  5
1C
100
AcDbEntity
 67
1
  8
0
100
AcDbBlockBegin
  2
*Paper_Space
 70
0
 10
0.0
 20
0.0
 30
0.0
  3
*Paper_Space
  1

  0
ENDBLK
  5
1D
100
AcDbEntity
 67
1
  8
0
100
AcDbBlockEnd
  0
BLOCK
  5
24
100
AcDbEntity
  8
0
100
AcDbBlockBegin
  2
*Paper_Space0
 70
0
 10
0.0
 20
0.0
 30
0.0
  3
*Paper_Space0
  1

  0
ENDBLK
  5
25
100
AcDbEntity
  8
0
100
AcDbBlockEnd
  0
ENDSEC
  0
SECTION
  2
ENTITIES
  0
LINE
  5
5E
100
AcDbEntity
  8
-.-
 62
256
370
-1
 48
1.0
  6
BYLAYER
100
AcDbLine
 10
20.0
 20
55.0000000000000071
 30
0.0
 11
20.0
 21
44.0000000000000071
 31
0.0
  0
LINE
  5
5F
100
AcDbEntity
  8
0
 62
256
370
-1
 48
1.0
  6
BYLAYER
100
AcDbLine
 10
17.5
 20
45.0
 30
0.0
 11
19.5
 21
45.0
 31
0.0
  0
LINE
  5
60
100
AcDbEntity
  8
0
 62
256
370
-1
 48
1.0
  6
BYLAYER
100
AcDbLine
 10
22.4999999999999964
 20
45.0
 30
0.0
 11
22.4999999999999964
 21
46.0
 31
0.0
  0
LINE
  5
61
100
AcDbEntity
  8
0
 62
256
370
-1
 48
1.0
  6
BYLAYER
100
AcDbLine
 10
17.5000000000000036
 20
45.0
 30
0.0
 11
17.5000000000000036
 21
46.0000000000000071
 31
0.0
  0
LINE
  5
62
100
AcDbEntity
  8
0
 62
256
370
-1
 48
1.0
  6
BYLAYER
100
AcDbLine
 10
22.4999999999999964
 20
46.0
 30
0.0
 11
27.4999999999999964
 21
46.0
 31
0.0
  0
LINE
  5
63
100
AcDbEntity
  8
0
 62
256
370
-1
 48
1.0
  6
BYLAYER
100
AcDbLine
 10
17.5000000000000036
 20
46.0000000000000071
 30
0.0
 11
12.5000000000000036
 21
46.0000000000000071
 31
0.0
  0
LINE
  5
64
100
AcDbEntity
  8
0
 62
256
370
-1
 48
1.0
  6
BYLAYER
100
AcDbLine
 10
27.4999999999999964
 20
46.0
 30
0.0
 11
27.4999999999999964
 21
53.0
 31
0.0
  0
LINE
  5
65
100
AcDbEntity
  8
0
 62
256
370
-1
 48
1.0
  6
BYLAYER
100
AcDbLine
 10
12.5000000000000036
 20
46.0000000000000071
 30
0.0
 11
12.5000000000000053
 21
53.0000000000000071
 31
0.0
  0
LINE
  5
66
100
AcDbEntity
  8
0
 62
256
370
-1
 48
1.0
  6
BYLAYER
100
AcDbLine
 10
27.4999999999999964
 20
53.0
 30
0.0
 11
26.4999999999999964
 21
53.0
 31
0.0
  0
LINE
  5
67
100
AcDbEntity
  8
0
 62
256
370
-1
 48
1.0
  6
BYLAYER
100
AcDbLine
 10
12.5000000000000053
 20
53.0000000000000071
 30
0.0
 11
13.5000000000000053
 21
53.0
 31
0.0
  0
LINE
  5
68
100
AcDbEntity
  8
0
 62
256
370
-1
 48
1.0
  6
BYLAYER
100
AcDbLine
 10
26.4999999999999964
 20
53.0
 30
0.0
 11
26.4999999999999964
 21
54.0
 31
0.0
  0
LINE
  5
69
100
AcDbEntity
  8
0
 62
256
370
-1
 48
1.0
  6
BYLAYER
100
AcDbLine
 10
13.5000000000000053
 20
53.0
 30
0.0
 11
13.5000000000000071
 21
54.0
 31
0.0
  0
LINE
  5
6A
100
AcDbEntity
  8
0
 62
256
370
-1
 48
1.0
  6
BYLAYER
100
AcDbLine
 10
26.4999999999999964
 20
54.0
 30
0.0
 11
24.9999999999999964
 21
54.0
 31
0.0
  0
LINE
  5
6B
100
AcDbEntity
  8
0
 62
256
370
-1
 48
1.0
  6
BYLAYER
100
AcDbLine
 10
13.5000000000000071
 20
54.0
 30
0.0
 11
15.0000000000000036
 21
54.0
 31
0.0
  0
LINE
  5
6C
100
AcDbEntity
  8
0
 62
256
370
-1
 48
1.0
  6
BYLAYER
100
AcDbLine
 10
24.9999999999999964
 20
54.0
 30
0.0
 11
24.9999999999999964
 21
49.0
 31
0.0
  0
LINE
  5
6D
100
AcDbEntity
  8
0
 62
256
370
-1
 48
1.0
  6
BYLAYER
100
AcDbLine
 10
15.0000000000000036
 20
54.0
 30
0.0
 11
15.0000000000000036
 21
49.0
 31
0.0
  0
LINE
  5
6E
100
AcDbEntity
  8
0
 62
256
370
-1
 48
1.0
  6
BYLAYER
100
AcDbLine
 10
24.9999999999999964
 20
49.0
 30
0.0
 11
21.0
 21
49.0
 31
0.0
  0
LINE
  5
6F
100
AcDbEntity
  8
0
 62
256
370
-1
 48
1.0
  6
BYLAYER
100
AcDbLine
 10
15.0000000000000036
 20
49.0
 30
0.0
 11
19.0
 21
49.0
 31
0.0
  0
LINE
  5
70
100
AcDbEntity
  8
0
 62
256
370
-1
 48
1.0
  6
BYLAYER
100
AcDbLine
 10
21.0
 20
49.0
 30
0.0
 11
21.0
 21
54.0
 31
0.0
  0
LINE
  5
71
100
AcDbEntity
  8
0
 62
256
370
-1
 48
1.0
  6
BYLAYER
100
AcDbLine
 10
19.0
 20
49.0
 30
0.0
 11
19.0
 21
54.0
 31
0.0
  0
LINE
  5
72
100
AcDbEntity
  8
0
 62
256
370
-1
 48
1.0
  6
BYLAYER
100
AcDbLine
 10
19.5
 20
53.9999999999999929
 30
0.0
 11
19.0
 21
54.0
 31
0.0
  0
LINE
  5
73
100
AcDbEntity
  8
-
 62
256
370
-1
 48
1.0
  6
BYLAYER
100
AcDbLine
 10
15.0000000000000036
 20
54.0
 30
0.0
 11
24.9999999999999964
 21
54.0
 31
0.0
  0
LINE
  5
74
100
AcDbEntity
  8
0
 62
256
370
-1
 48
1.0
  6
BYLAYER
100
AcDbLine
 10
19.5
 20
54.0
 30
0.0
 11
19.5
 21
45.0
 31
0.0
  0
LINE
  5
75
100
AcDbEntity
  8
0
 62
256
370
-1
 48
1.0
  6
BYLAYER
100
AcDbLine
 10
20.5
 20
45.0
 30
0.0
 11
20.5
 21
54.0
 31
0.0
  0
LINE
  5
76
100
AcDbEntity
  8
0
 62
256
370
-1
 48
1.0
  6
BYLAYER
100
AcDbLine
 10
20.4999999999999964
 20
54.0000000000000071
 30
0.0
 11
21.0
 21
54.0
 31
0.0
  0
LINE
  5
77
100
AcDbEntity
  8
0
 62
256
370
-1
 48
1.0
  6
BYLAYER
100
AcDbLine
 10
20.5
 20
45.0
 30
0.0
 11
22.4999999999999964
 21
45.0
 31
0.0
  0
LINE
  5
78
100
AcDbEntity
  8
-
 62
256
370
-1
 48
1.0
  6
BYLAYER
100
AcDbLine
 10
19.5
 20
45.0
 30
0.0
 11
20.5
 21
45.0
 31
0.0
  0
HATCH
  5
79
100
AcDbEntity
  8
-
 62
256
370
-1
 48
1.0
  6
BYLAYER
100
AcDbHatch
 10
0.0
 20
0.0
 30
0.0
210
0.0
220
0.0
230
1.0
  2
ANSI31
 70
0
 71
0
 91
2
 92
1
 93
12
 72
1
 10
27.4999999999999964
 20
46.0
 11
27.4999999999999964
 21
53.0
 72
1
 10
27.4999999999999964
 20
53.0
 11
26.4999999999999964
 21
53.0
 72
1
 10
26.4999999999999964
 20
53.0
 11
26.4999999999999964
 21
54.0
 72
1
 10
26.4999999999999964
 20
54.0
 11
24.9999999999999964
 21
54.0
 72
1
 10
24.9999999999999964
 20
54.0
 11
24.9999999999999964
 21
49.0
 72
1
 10
24.9999999999999964
 20
49.0
 11
21.0
 21
49.0
 72
1
 10
21.0
 20
49.0
 11
21.0
 21
54.0
 72
1
 10
21.0
 20
54.0
 11
20.4999999999999964
 21
54.0000000000000071
 72
1
 10
20.5
 20
54.0
 11
20.5
 21
45.0
 72
1
 10
20.5
 20
45.0
 11
22.4999999999999964
 21
45.0
 72
1
 10
22.4999999999999964
 20
45.0
 11
22.4999999999999964
 21
46.0
 72
1
 10
22.4999999999999964
 20
46.0
 11
27.4999999999999964
 21
46.0
 97
0
 92
1
 93
12
 72
1
 10
17.5
 20
45.0
 11
19.5
 21
45.0
 72
1
 10
19.5
 20
45.0
 11
19.5
 21
54.0
 72
1
 10
19.5
 20
53.9999999999999929
 11
19.0
 21
54.0
 72
1
 10
19.0
 20
54.0
 11
19.0
 21
49.0
 72
1
 10
19.0
 20
49.0
 11
15.0000000000000036
 21
49.0
 72
1
 10
15.0000000000000036
 20
49.0
 11
15.0000000000000036
 21
54.0
 72
1
 10
15.0000000000000036
 20
54.0
 11
13.5000000000000071
 21
54.0
 72
1
 10
13.5000000000000071
 20
54.0
 11
13.5000000000000053
 21
53.0
 72
1
 10
13.5000000000000053
 20
53.0
 11
12.5000000000000053
 21
53.0000000000000071
 72
1
 10
12.5000000000000053
 20
53.0000000000000071
 11
12.5000000000000036
 21
46.0000000000000071
 72
1
 10
12.5000000000000036
 20
46.0000000000000071
 11
17.5000000000000036
 21
46.0000000000000071
 72
1
 10
17.5000000000000036
 20
46.0000000000000071
 11
17.5000000000000036
 21
45.0
 97
0
 75
0
 76
1
 52
0.0
 41
0.25
 77
0
 78
1
 53
45.0
 43
0.0
 44
0.0
 45
-0.0883883476483184
 46
0.0883883476483185
 79
0
 98
0
1001
ACAD
1010
0.0
1020
0.0
1030
0
  0
LINE
  5
7A
100
AcDbEntity
  8
-.-
 62
256
370
-1
 48
1.0
  6
BYLAYER
100
AcDbLine
 10
20.0
 20
69.0
 30
0.0
 11
20.0
 21
76.0
 31
0.0
  0
LINE
  5
7B
100
AcDbEntity
  8
0
 62
256
370
-1
 48
1.0
  6
BYLAYER
100
AcDbLine
 10
12.4999999999999982
 20
70.0
 30
0.0
 11
12.4999999999999982
 21
75.0
 31
0.0
  0
LINE
  5
7C
100
AcDbEntity
  8
0
 62
256
370
-1
 48
1.0
  6
BYLAYER
100
AcDbLine
 10
12.4999999999999982
 20
75.0
 30
0.0
 11
27.4999999999999964
 21
75.0
 31
0.0
  0
LINE
  5
7D
100
AcDbEntity
  8
0
 62
256
370
-1
 48
1.0
  6
BYLAYER
100
AcDbLine
 10
27.4999999999999964
 20
75.0
 30
0.0
 11
27.4999999999999964
 21
75.0
 31
0.0
  0
LINE
  5
7E
100
AcDbEntity
  8
0
 62
256
370
-1
 48
1.0
  6
BYLAYER
100
AcDbLine
 10
27.4999999999999964
 20
75.0
 30
0.0
 11
27.4999999999999964
 21
70.0
 31
0.0
  0
LINE
  5
7F
100
AcDbEntity
  8
0
 62
256
370
-1
 48
1.0
  6
BYLAYER
100
AcDbLine
 10
27.4999999999999964
 20
70.0
 30
0.0
 11
26.4999999999999964
 21
70.0
 31
0.0
  0
LINE
  5
80
100
AcDbEntity
  8
0
 62
256
370
-1
 48
1.0
  6
BYLAYER
100
AcDbLine
 10
26.4999999999999964
 20
70.0
 30
0.0
 11
26.4999999999999964
 21
72.5
 31
0.0
  0
LINE
  5
81
100
AcDbEntity
  8
0
 62
256
370
-1
 48
1.0
  6
BYLAYER
100
AcDbLine
 10
26.4999999999999964
 20
72.5
 30
0.0
 11
13.4999999999999982
 21
72.5
 31
0.0
  0
LINE
  5
82
100
AcDbEntity
  8
0
 62
256
370
-1
 48
1.0
  6
BYLAYER
100
AcDbLine
 10
13.4999999999999982
 20
72.5
 30
0.0
 11
13.4999999999999982
 21
70.0
 31
0.0
  0
LINE
  5
83
100
AcDbEntity
  8
0
 62
256
370
-1
 48
1.0
  6
BYLAYER
100
AcDbLine
 10
13.4999999999999982
 20
70.0
 30
0.0
 11
12.4999999999999982
 21
70.0
 31
0.0
  0
HATCH
  5
84
100
AcDbEntity
  8
-
 62
256
370
-1
 48
1.0
  6
BYLAYER
100
AcDbHatch
 10
0.0
 20
0.0
 30
0.0
210
0.0
220
0.0
230
1.0
  2
ANSI31
 70
0
 71
0
 91
1
 92
1
 93
8
 72
1
 10
26.4999999999999964
 20
70.0
 11
26.4999999999999964
 21
72.5
 72
1
 10
26.4999999999999964
 20
72.5
 11
13.4999999999999982
 21
72.5
 72
1
 10
13.4999999999999982
 20
72.5
 11
13.4999999999999982
 21
70.0
 72
1
 10
13.4999999999999982
 20
70.0
 11
12.4999999999999982
 21
70.0
 72
1
 10
12.4999999999999982
 20
70.0
 11
12.4999999999999982
 21
75.0
 72
1
 10
12.4999999999999982
 20
75.0
 11
27.4999999999999964
 21
75.0
 72
1
 10
27.4999999999999964
 20
75.0
 11
27.4999999999999964
 21
70.0
 72
1
 10
27.4999999999999964
 20
70.0
 11
26.4999999999999964
 21
70.0
 97
0
 75
0
 76
1
 52
0.0
 41
0.25
 77
0
 78
1
 53
45.0
 43
0.0
 44
0.0
 45
-0.0883883476483184
 46
0.0883883476483185
 79
0
 98
0
1001
ACAD
1010
0.0
1020
0.0
1030
0
  0
LINE
  5
85
100
AcDbEntity
  8
-
 62
256
370
-1
 48
1.0
  6
BYLAYER
100
AcDbLine
 10
13.4999999999999982
 20
70.0
 30
0.0
 11
26.5
 21
70.0
 31
0.0
  0
DIMENSION
  5
86
100
AcDbEntity
  8
dim
 62
256
370
-1
 48
1.0
  6
BYLAYER
100
AcDbDimension
 10
12.5
 20
76.8125
 30
0.0
 11
20.0
 21
77.5625
 31
0.0
 70
0
 71
8
 72
2
 74
0
 75
0
 41
1.0
 42
0.0
  1
D15
  3
Standard
100
AcDbAlignedDimension
 13
12.5
 23
75.0
 33
0.0
 14
27.5
 24
75.0
 34
0.0
 50
0.0
100
AcDbRotatedDimension
1001
ACAD
1000
DSTYLE
1002
{
1070
144
1040
1.0
1070
40
1040
1.0
1002
}
  0
DIMENSION
  5
87
100
AcDbEntity
  8
dim
 62
256
370
-1
 48
1.0
  6
BYLAYER
100
AcDbDimension
 10
13.4999999999999947
 20
65.0
 30
0.0
 11
19.9999999999999929
 21
65.75
 31
0.0
 70
0
 71
8
 72
2
 74
0
 75
0
 41
1.0
 42
0.0
  1
D13
  3
Standard
100
AcDbAlignedDimension
 13
13.4999999999999947
 23
70.0
 33
0.0
 14
26.4999999999999929
 24
70.0
 34
0.0
 50
0.0
100
AcDbRotatedDimension
1001
ACAD
1000
DSTYLE
1002
{
1070
144
1040
1.0
1070
40
1040
1.0
1002
}
  0
DIMENSION
  5
88
100
AcDbEntity
  8
dim
 62
256
370
-1
 48
1.0
  6
BYLAYER
100
AcDbDimension
 10
13.5000000000000107
 20
58.0
 30
0.0
 11
20.0000000000000036
 21
58.75
 31
0.0
 70
0
 71
8
 72
2
 74
0
 75
0
 41
1.0
 42
0.0
  1
D13
  3
Standard
100
AcDbAlignedDimension
 13
13.5000000000000107
 23
54.0
 33
0.0
 14
26.4999999999999964
 24
54.0
 34
0.0
 50
0.0
100
AcDbRotatedDimension
1001
ACAD
1000
DSTYLE
1002
{
1070
144
1040
1.0
1070
40
1040
1.0
1002
}
  0
DIMENSION
  5
89
100
AcDbEntity
  8
dim
 62
256
370
-1
 48
1.0
  6
BYLAYER
100
AcDbDimension
 10
10.0
 20
75.0
 30
0.0
 11
9.25
 21
72.5
 31
0.0
 70
0
 71
8
 72
2
 74
0
 75
0
 41
1.0
 42
0.0
  1

  3
Standard
100
AcDbAlignedDimension
 13
12.5
 23
75.0
 33
0.0
 14
12.4999999999999982
 24
70.0
 34
0.0
 50
90.0
100
AcDbRotatedDimension
1001
ACAD
1000
DSTYLE
1002
{
1070
144
1040
1.0
1070
40
1040
1.0
1002
}
  0
DIMENSION
  5
8A
100
AcDbEntity
  8
dim
 62
256
370
-1
 48
1.0
  6
BYLAYER
100
AcDbDimension
 10
23.9999999999999964
 20
72.5
 30
0.0
 11
23.2499999999999964
 21
68.1461321514907326
 31
0.0
 70
0
 71
8
 72
2
 74
0
 75
0
 41
1.0
 42
0.0
  1
~2.5
  3
Standard
100
AcDbAlignedDimension
 13
24.9999999999999964
 23
72.5
 33
0.0
 14
24.9999999999999964
 24
70.0
 34
0.0
 50
90.0
100
AcDbRotatedDimension
1001
ACAD
1000
DSTYLE
1002
{
1070
144
1040
1.0
1070
40
1040
1.0
1002
}
  0
DIMENSION
  5
8B
100
AcDbEntity
  8
dim
 62
256
370
-1
 48
1.0
  6
BYLAYER
100
AcDbDimension
 10
8.0
 20
53.9999999999999929
 30
0.0
 11
7.25
 21
49.5
 31
0.0
 70
0
 71
8
 72
2
 74
0
 75
0
 41
1.0
 42
0.0
  1

  3
Standard
100
AcDbAlignedDimension
 13
13.5000000000000053
 23
53.9999999999999929
 33
0.0
 14
17.5000000000000036
 24
45.0
 34
0.0
 50
90.0
100
AcDbRotatedDimension
1001
ACAD
1000
DSTYLE
1002
{
1070
144
1040
1.0
1070
40
1040
1.0
1002
}
  0
DIMENSION
  5
8C
100
AcDbEntity
  8
dim
 62
256
370
-1
 48
1.0
  6
BYLAYER
100
AcDbDimension
 10
10.0
 20
53.0000000000000071
 30
0.0
 11
9.25
 21
54.6230862207896806
 31
0.0
 70
0
 71
8
 72
2
 74
0
 75
0
 41
1.0
 42
0.0
  1

  3
Standard
100
AcDbAlignedDimension
 13
12.5000000000000053
 23
53.0000000000000071
 33
0.0
 14
13.5000000000000053
 24
53.9999999999999929
 34
0.0
 50
90.0
100
AcDbRotatedDimension
1001
ACAD
1000
DSTYLE
1002
{
1070
144
1040
1.0
1070
40
1040
1.0
1002
}
  0
DIMENSION
  5
8D
100
AcDbEntity
  8
dim
 62
256
370
-1
 48
1.0
  6
BYLAYER
100
AcDbDimension
 10
10.0
 20
45.0
 30
0.0
 11
9.25
 21
46.6230862207896877
 31
0.0
 70
0
 71
8
 72
2
 74
0
 75
0
 41
1.0
 42
0.0
  1

  3
Standard
100
AcDbAlignedDimension
 13
17.5000000000000036
 23
45.0
 33
0.0
 14
12.5000000000000036
 24
46.0000000000000071
 34
0.0
 50
90.0
100
AcDbRotatedDimension
1001
ACAD
1000
DSTYLE
1002
{
1070
144
1040
1.0
1070
40
1040
1.0
1002
}
  0
LINE
  5
8E
100
AcDbEntity
  8
-.-
 62
256
370
-1
 48
1.0
  6
BYLAYER
100
AcDbLine
 10
17.0
 20
48.0
 30
0.0
 11
17.0
 21
55.0
 31
0.0
  0
LINE
  5
8F
100
AcDbEntity
  8
-.-
 62
256
370
-1
 48
1.0
  6
BYLAYER
100
AcDbLine
 10
23.0
 20
55.0
 30
0.0
 11
23.0
 21
48.0
 31
0.0
  0
DIMENSION
  5
90
100
AcDbEntity
  8
dim
 62
256
370
-1
 48
1.0
  6
BYLAYER
100
AcDbDimension
 10
15.0000000000000036
 20
56.0
 30
0.0
 11
17.0
 21
56.75
 31
0.0
 70
0
 71
8
 72
2
 74
0
 75
0
 41
1.0
 42
0.0
  1
D4
  3
Standard
100
AcDbAlignedDimension
 13
15.0000000000000036
 23
53.9999999999999929
 33
0.0
 14
19.0
 24
54.0
 34
0.0
 50
0.0
100
AcDbRotatedDimension
1001
ACAD
1000
DSTYLE
1002
{
1070
144
1040
1.0
1070
40
1040
1.0
1002
}
  0
DIMENSION
  5
91
100
AcDbEntity
  8
dim
 62
256
370
-1
 48
1.0
  6
BYLAYER
100
AcDbDimension
 10
21.0
 20
56.0
 30
0.0
 11
23.0
 21
56.75
 31
0.0
 70
0
 71
8
 72
2
 74
0
 75
0
 41
1.0
 42
0.0
  1
D4
  3
Standard
100
AcDbAlignedDimension
 13
21.0
 23
54.0
 33
0.0
 14
24.9999999999999964
 24
54.0
 34
0.0
 50
0.0
100
AcDbRotatedDimension
1001
ACAD
1000
DSTYLE
1002
{
1070
144
1040
1.0
1070
40
1040
1.0
1002
}
  0
DIMENSION
  5
92
100
AcDbEntity
  8
dim
 62
256
370
-1
 48
1.0
  6
BYLAYER
100
AcDbDimension
 10
17.5000000000000036
 20
41.0
 30
0.0
 11
20.0
 21
41.75
 31
0.0
 70
0
 71
8
 72
2
 74
0
 75
0
 41
1.0
 42
0.0
  1
D5
  3
Standard
100
AcDbAlignedDimension
 13
17.5000000000000036
 23
45.0
 33
0.0
 14
22.4999999999999964
 24
45.0
 34
0.0
 50
0.0
100
AcDbRotatedDimension
1001
ACAD
1000
DSTYLE
1002
{
1070
144
1040
1.0
1070
40
1040
1.0
1002
}
  0
DIMENSION
  5
93
100
AcDbEntity
  8
dim
 62
256
370
-1
 48
1.0
  6
BYLAYER
100
AcDbDimension
 10
19.5
 20
43.0
 30
0.0
 11
21.6491136180499595
 21
43.75
 31
0.0
 70
0
 71
8
 72
2
 74
0
 75
0
 41
1.0
 42
0.0
  1
D1
  3
Standard
100
AcDbAlignedDimension
 13
19.5
 23
45.0
 33
0.0
 14
20.5
 24
45.0
 34
0.0
 50
0.0
100
AcDbRotatedDimension
1001
ACAD
1000
DSTYLE
1002
{
1070
144
1040
1.0
1070
40
1040
1.0
1002
}
  0
DIMENSION
  5
94
100
AcDbEntity
  8
dim
 62
256
370
-1
 48
1.0
  6
BYLAYER
100
AcDbDimension
 10
12.5000000000000053
 20
60.0
 30
0.0
 11
20.0
 21
60.75
 31
0.0
 70
0
 71
8
 72
2
 74
0
 75
0
 41
1.0
 42
0.0
  1
D15
  3
Standard
100
AcDbAlignedDimension
 13
12.5000000000000053
 23
53.0000000000000071
 33
0.0
 14
27.4999999999999964
 24
53.0
 34
0.0
 50
0.0
100
AcDbRotatedDimension
1001
ACAD
1000
DSTYLE
1002
{
1070
144
1040
1.0
1070
40
1040
1.0
1002
}
  0
DIMENSION
  5
95
100
AcDbEntity
  8
dim
 62
256
370
-1
 48
1.0
  6
BYLAYER
100
AcDbDimension
 10
30.0
 20
54.0
 30
0.0
 11
29.25
 21
51.5
 31
0.0
 70
0
 71
8
 72
2
 74
0
 75
0
 41
1.0
 42
0.0
  1

  3
Standard
100
AcDbAlignedDimension
 13
24.9999999999999964
 23
54.0
 33
0.0
 14
24.9999999999999964
 24
49.0
 34
0.0
 50
90.0
100
AcDbRotatedDimension
1001
ACAD
1000
DSTYLE
1002
{
1070
144
1040
1.0
1070
40
1040
1.0
1002
}
  0
MTEXT
  5
96
100
AcDbEntity
  8
0
 62
256
370
-1
 48
1.0
  6
BYLAYER
100
AcDbMText
 10
52.0
 20
44.0
 30
0.0
 40
1.0
 41
0.0
 71
1
 72
1
  1
\fLiberation Sans|b0|i0|c0|p0;Cell for vibrating wires, GRP\PV.Zavjalov, 03-05-2022
  7
textstyle1
 50
0.0
 73
2
 44
1.0
  0
CIRCLE
  5
97
100
AcDbEntity
  8
0
 62
256
370
-1
 48
1.0
  6
BYLAYER
100
AcDbCircle
 10
41.0
 20
50.0
 30
0.0
 40
7.5
  0
CIRCLE
  5
98
100
AcDbEntity
  8
0
 62
256
370
-1
 48
1.0
  6
BYLAYER
100
AcDbCircle
 10
41.0
 20
50.0
 30
0.0
 40
6.5
  0
CIRCLE
  5
99
100
AcDbEntity
  8
0
 62
256
370
-1
 48
1.0
  6
BYLAYER
100
AcDbCircle
 10
38.0
 20
50.0
 30
0.0
 40
2.0
  0
CIRCLE
  5
9A
100
AcDbEntity
  8
0
 62
256
370
-1
 48
1.0
  6
BYLAYER
100
AcDbCircle
 10
44.0
 20
50.0
 30
0.0
 40
2.0
  0
CIRCLE
  5
9B
100
AcDbEntity
  8
0
 62
256
370
-1
 48
1.0
  6
BYLAYER
100
AcDbCircle
 10
41.0
 20
50.0
 30
0.0
 40
0.5
  0
CIRCLE
  5
9C
100
AcDbEntity
  8
0
 62
256
370
-1
 48
1.0
  6
BYLAYER
100
AcDbCircle
 10
44.8302222155948868
 20
53.2139380484326949
 30
0.0
 40
0.5
  0
CIRCLE
  5
9D
100
AcDbEntity
  8
0
 62
256
370
-1
 48
1.0
  6
BYLAYER
100
AcDbCircle
 10
37.1697777844051132
 20
53.2139380484326949
 30
0.0
 40
0.5
  0
CIRCLE
  5
9E
100
AcDbEntity
  8
0
 62
256
370
-1
 48
1.0
  6
BYLAYER
100
AcDbCircle
 10
37.169777784405106
 20
46.7860619515673051
 30
0.0
 40
0.5
  0
CIRCLE
  5
9F
100
AcDbEntity
  8
0
 62
256
370
-1
 48
1.0
  6
BYLAYER
100
AcDbCircle
 10
44.830222215594894
 20
46.786061951567298
 30
0.0
 40
0.5
  0
LINE
  5
A0
100
AcDbEntity
  8
-.-
 62
256
370
-1
 48
1.0
  6
BYLAYER
100
AcDbLine
 10
41.0
 20
42.0
 30
0.0
 11
41.0
 21
58.0
 31
0.0
  0
LINE
  5
A1
100
AcDbEntity
  8
-.-
 62
256
370
-1
 48
1.0
  6
BYLAYER
100
AcDbLine
 10
49.0
 20
50.0
 30
0.0
 11
33.0
 21
50.0
 31
0.0
  0
LINE
  5
A2
100
AcDbEntity
  8
-.-
 62
256
370
-1
 48
1.0
  6
BYLAYER
100
AcDbLine
 10
43.9999999999999929
 20
52.9999999999999929
 30
0.0
 11
44.0
 21
47.0
 31
0.0
  0
LINE
  5
A3
100
AcDbEntity
  8
-.-
 62
256
370
-1
 48
1.0
  6
BYLAYER
100
AcDbLine
 10
38.0
 20
47.0
 30
0.0
 11
38.0
 21
53.0
 31
0.0
  0
LINE
  5
A4
100
AcDbEntity
  8
-.-
 62
256
370
-1
 48
1.0
  6
BYLAYER
100
AcDbLine
 10
44.0641777724759152
 20
52.5711504387461588
 30
0.0
 11
45.5962666587138514
 21
53.856725658119224
 31
0.0
  0
LINE
  5
A5
100
AcDbEntity
  8
-.-
 62
256
370
-1
 48
1.0
  6
BYLAYER
100
AcDbLine
 10
44.0641777724759152
 20
47.4288495612538412
 30
0.0
 11
45.5962666587138656
 21
46.1432743418807618
 31
0.0
  0
LINE
  5
A6
100
AcDbEntity
  8
-.-
 62
256
370
-1
 48
1.0
  6
BYLAYER
100
AcDbLine
 10
37.9358222275240848
 20
52.5711504387461588
 30
0.0
 11
36.4037333412861415
 21
53.8567256581192311
 31
0.0
  0
LINE
  5
A7
100
AcDbEntity
  8
-.-
 62
256
370
-1
 48
1.0
  6
BYLAYER
100
AcDbLine
 10
37.9358222275240848
 20
47.4288495612538412
 30
0.0
 11
36.4037333412861344
 21
46.1432743418807618
 31
0.0
  0
ARC
  5
A8
100
AcDbEntity
  8
-.-
 62
256
370
-1
 48
1.0
  6
BYLAYER
100
AcDbCircle
 10
41.0
 20
49.9999999999999929
 30
0.0
 40
5.0
100
AcDbArc
 50
22.8088761321859046
 51
57.1911238678142837
  0
ARC
  5
A9
100
AcDbEntity
  8
-.-
 62
256
370
-1
 48
1.0
  6
BYLAYER
100
AcDbCircle
 10
41.0
 20
49.9999999999999929
 30
0.0
 40
5.0
100
AcDbArc
 50
302.8088761321858442
 51
337.1911238678142126
  0
ARC
  5
AA
100
AcDbEntity
  8
-.-
 62
256
370
-1
 48
1.0
  6
BYLAYER
100
AcDbCircle
 10
41.0
 20
49.9999999999999929
 30
0.0
 40
5.0
100
AcDbArc
 50
202.8088761321857305
 51
237.1911238678141274
  0
ARC
  5
AB
100
AcDbEntity
  8
-.-
 62
256
370
-1
 48
1.0
  6
BYLAYER
100
AcDbCircle
 10
41.0
 20
49.9999999999999929
 30
0.0
 40
5.0
100
AcDbArc
 50
122.8088761321857447
 51
157.191123867814099
  0
DIMENSION
  5
AC
100
AcDbEntity
  8
dim
 62
256
370
-1
 48
1.0
  6
BYLAYER
100
AcDbDimension
 10
33.5
 20
61.0
 30
0.0
 11
41.0
 21
61.75
 31
0.0
 70
0
 71
8
 72
2
 74
0
 75
0
 41
1.0
 42
0.0
  1

  3
Standard
100
AcDbAlignedDimension
 13
33.5
 23
50.0
 33
0.0
 14
48.5
 24
50.0
 34
0.0
 50
0.0
100
AcDbRotatedDimension
1001
ACAD
1000
DSTYLE
1002
{
1070
144
1040
1.0
1070
40
1040
1.0
1002
}
  0
DIMENSION
  5
AD
100
AcDbEntity
  8
dim
 62
256
370
-1
 48
1.0
  6
BYLAYER
100
AcDbDimension
 10
34.5
 20
59.0
 30
0.0
 11
41.0
 21
59.75
 31
0.0
 70
0
 71
8
 72
2
 74
0
 75
0
 41
1.0
 42
0.0
  1

  3
Standard
100
AcDbAlignedDimension
 13
34.5
 23
50.0
 33
0.0
 14
47.5
 24
50.0
 34
0.0
 50
0.0
100
AcDbRotatedDimension
1001
ACAD
1000
DSTYLE
1002
{
1070
144
1040
1.0
1070
40
1040
1.0
1002
}
  0
DIMENSION
  5
AE
100
AcDbEntity
  8
dim
 62
256
370
-1
 48
1.0
  6
BYLAYER
100
AcDbDimension
 10
41.0
 20
49.9999999999999929
 30
0.0
 11
41.8429798529860903
 21
52.4701993780785187
 31
0.0
 70
4
 71
8
 72
2
 74
0
 41
1.0
 42
0.0
  1

  3
Standard
100
AcDbRadialDimension
 15
43.9064948007516449
 25
54.0684503159315568
 35
0.0
 40
0.0
1001
ACAD
1000
DSTYLE
1002
{
1070
144
1040
1.0
1070
40
1040
1.0
1002
}
  0
DIMENSION
  5
AF
100
AcDbEntity
  8
dim
 62
256
370
-1
 48
1.0
  6
BYLAYER
100
AcDbDimension
 10
39.7888543819998262
 20
50.8944271909999131
 30
0.0
 11
37.6645898033750299
 21
50.6708203932499401
 31
0.0
 70
3
 71
8
 72
2
 74
0
 75
0
 41
1.0
 42
0.0
  1

  3
Standard
100
AcDbDiametricDimension
 15
36.2111456180001738
 25
49.1055728090000869
 35
0.0
 40
0.0
1001
ACAD
1000
DSTYLE
1002
{
1070
144
1040
1.0
1070
40
1040
1.0
1002
}
  0
DIMENSION
  5
B0
100
AcDbEntity
  8
dim
 62
256
370
-1
 48
1.0
  6
BYLAYER
100
AcDbDimension
 10
45.7888543819998333
 20
50.8944271909999131
 30
0.0
 11
43.6645898033750299
 21
50.6708203932499401
 31
0.0
 70
3
 71
8
 72
2
 74
0
 75
0
 41
1.0
 42
0.0
  1

  3
Standard
100
AcDbDiametricDimension
 15
42.2111456180001667
 25
49.1055728090000869
 35
0.0
 40
0.0
1001
ACAD
1000
DSTYLE
1002
{
1070
144
1040
1.0
1070
40
1040
1.0
1002
}
  0
LEADER
  5
B1
100
AcDbEntity
  8
dim
 62
256
370
-1
 48
1.0
  6
BYLAYER
100
AcDbLeader
  3
Standard
 71
1
 72
0
 73
3
 74
0
 75
0
 40
1.0
 41
10.0
 76
3
 10
45.330222215594894
 20
46.786061951567298
 10
51.0
 20
46.0
 10
56.0
 20
46.0
1001
ACAD
1000
DSTYLE
1002
{
1070
40
1040
1.0
1002
}
  0
MTEXT
  5
B2
100
AcDbEntity
  8
dim
 62
256
370
-1
 48
1.0
  6
BYLAYER
100
AcDbMText
 10
51.1595246499165199
 20
47.5870561949112556
 30
0.0
 40
1.0
 41
0.0
 71
1
 72
1
  1
\fLiberation Sans|b0|i0|c0|p0;D=1 holes: 2 blind, 2 through\P
  7
textstyle0
 50
0.0
 73
2
 44
1.0
  0
DIMENSION
  5
B3
100
AcDbEntity
  8
dim
 62
256
370
-1
 48
1.0
  6
BYLAYER
100
AcDbDimension
 10
33.0
 20
50.0
 30
0.0
 11
51.3934582794794821
 21
53.7829094448181522
 31
0.0
 70
2
 71
8
 72
2
 74
0
 75
0
 41
1.0
 42
0.0
  1

  3
Standard
100
AcDb2LineAngularDimension
 13
45.5962666587138514
 23
53.856725658119224
 33
0.0
 14
44.0641777724759152
 24
52.5711504387461588
 34
0.0
 15
49.0
 25
50.0
 35
0.0
 16
50.4923761113911667
 26
54.025039591680887
 36
0.0
  0
ENDSEC
  0
SECTION
  2
OBJECTS
  0
DICTIONARY
  5
C
100
AcDbDictionary
280
0
281
1
  3
ACAD_GROUP
350
D
  3
ACAD_LAYOUT
350
1A
  3
ACAD_MLINESTYLE
350
17
  3
ACAD_PLOTSETTINGS
350
19
  3
ACAD_PLOTSTYLENAME
350
E
  3
AcDbVariableDictionary
350
B4
  3
QCAD_OBJECTS
350
B5
  0
DICTIONARY
  5
D
100
AcDbDictionary
280
0
281
1
  0
ACDBDICTIONARYWDFLT
  5
E
100
AcDbDictionary
281
1
  3
Normal
350
F
100
AcDbDictionaryWithDefault
340
F
  0
ACDBPLACEHOLDER
  5
F
  0
DICTIONARY
  5
17
100
AcDbDictionary
280
0
281
1
  3
Standard
350
18
  0
MLINESTYLE
  5
18
100
AcDbMlineStyle
  2
STANDARD
 70
0
  3

 62
256
 51
90.0
 52
90.0
 71
2
 49
0.5
 62
256
  6
BYLAYER
 49
-0.5
 62
256
  6
BYLAYER
  0
DICTIONARY
  5
19
100
AcDbDictionary
280
0
281
1
  0
DICTIONARY
  5
1A
100
AcDbDictionary
281
1
  3
Layout1
350
1E
  3
Layout2
350
26
  3
Model
350
22
  0
LAYOUT
  5
1E
100
AcDbPlotSettings
  1

  2
none_device
  4

  6

 40
0.0
 41
0.0
 42
0.0
 43
0.0
 44
0.0
 45
0.0
 46
0.0
 47
0.0
 48
0.0
 49
0.0
140
0.0
141
0.0
142
1.0
143
1.0
 70
688
 72
0
 73
0
 74
5
  7

 75
16
147
1.0
148
0.0
149
0.0
100
AcDbLayout
  1
Layout1
 70
1
 71
1
 10
0.0
 20
0.0
 11
420.0
 21
297.0
 12
0.0
 22
0.0
 32
0.0
 14
100000000000000000000.0
 24
100000000000000000000.0
 34
100000000000000000000.0
 15
-100000000000000000000.0
 25
-100000000000000000000.0
 35
-100000000000000000000.0
146
0.0
 13
0.0
 23
0.0
 33
0.0
 16
1.0
 26
0.0
 36
0.0
 17
0.0
 27
1.0
 37
0.0
 76
0
330
1B
  0
LAYOUT
  5
22
100
AcDbPlotSettings
  1

  2
none_device
  4

  6

 40
0.0
 41
0.0
 42
0.0
 43
0.0
 44
0.0
 45
0.0
 46
0.0
 47
0.0
 48
0.0
 49
0.0
140
0.0
141
0.0
142
1.0
143
1.0
 70
1712
 72
0
 73
0
 74
0
  7

 75
0
147
1.0
148
0.0
149
0.0
100
AcDbLayout
  1
Model
 70
1
 71
0
 10
0.0
 20
0.0
 11
12.0
 21
9.0
 12
0.0
 22
0.0
 32
0.0
 14
0.0
 24
0.0
 34
0.0
 15
0.0
 25
0.0
 35
0.0
146
0.0
 13
0.0
 23
0.0
 33
0.0
 16
1.0
 26
0.0
 36
0.0
 17
0.0
 27
1.0
 37
0.0
 76
0
330
1F
  0
LAYOUT
  5
26
100
AcDbPlotSettings
  1

  2
none_device
  4

  6

 40
0.0
 41
0.0
 42
0.0
 43
0.0
 44
0.0
 45
0.0
 46
0.0
 47
0.0
 48
0.0
 49
0.0
140
0.0
141
0.0
142
1.0
143
1.0
 70
688
 72
0
 73
0
 74
5
  7

 75
16
147
1.0
148
0.0
149
0.0
100
AcDbLayout
  1
Layout2
 70
1
 71
2
 10
0.0
 20
0.0
 11
12.0
 21
9.0
 12
0.0
 22
0.0
 32
0.0
 14
0.0
 24
0.0
 34
0.0
 15
0.0
 25
0.0
 35
0.0
146
0.0
 13
0.0
 23
0.0
 33
0.0
 16
1.0
 26
0.0
 36
0.0
 17
0.0
 27
1.0
 37
0.0
 76
0
330
23
  0
DICTIONARY
  5
B4
100
AcDbDictionary
281
1
  3
DIMASSOC
350
B7
  3
HIDETEXT
350
B6
  0
DICTIONARYVAR
  5
B6
100
DictionaryVariables
280
0
  1
2
  0
DICTIONARYVAR
  5
B7
100
DictionaryVariables
280
0
  1
1
  0
DICTIONARY
  5
B5
100
AcDbDictionary
281
1
  3
ColorSettings/BackgroundColor
350
B8
  3
ColorSettings/ColorMode
350
B9
  3
DimensionSettings/AngularFormat
350
BA
  3
DimensionSettings/AngularPrecision
350
BB
  3
DimensionSettings/DecimalPoint
350
BC
  3
DimensionSettings/DimensionFont
350
BD
  3
DimensionSettings/DimensionTextColor
350
BE
  3
DimensionSettings/KeepProportions
350
BF
  3
DimensionSettings/LinearFormat
350
C0
  3
DimensionSettings/LinearPrecision
350
C1
  3
Grid/DisplayGrid00
350
C2
  3
Grid/DisplayGrid01
350
C3
  3
Grid/DisplayGrid02
350
C4
  3
Grid/DisplayGrid03
350
C5
  3
Grid/GridSpacingX00
350
C6
  3
Grid/GridSpacingX01
350
C7
  3
Grid/GridSpacingX02
350
C8
  3
Grid/GridSpacingX03
350
C9
  3
Grid/GridSpacingY00
350
CA
  3
Grid/GridSpacingY01
350
CB
  3
Grid/GridSpacingY02
350
CC
  3
Grid/GridSpacingY03
350
CD
  3
Grid/IsometricGrid00
350
CE
  3
Grid/IsometricGrid01
350
CF
  3
Grid/IsometricGrid02
350
D0
  3
Grid/IsometricGrid03
350
D1
  3
Grid/IsometricProjection00
350
D2
  3
Grid/IsometricProjection01
350
D3
  3
Grid/IsometricProjection02
350
D4
  3
Grid/IsometricProjection03
350
D5
  3
Grid/MetaGridSpacingX00
350
D6
  3
Grid/MetaGridSpacingX01
350
D7
  3
Grid/MetaGridSpacingX02
350
D8
  3
Grid/MetaGridSpacingX03
350
D9
  3
Grid/MetaGridSpacingY00
350
DA
  3
Grid/MetaGridSpacingY01
350
DB
  3
Grid/MetaGridSpacingY02
350
DC
  3
Grid/MetaGridSpacingY03
350
DD
  3
MultiPageSettings/Columns
350
DE
  3
MultiPageSettings/GlueMarginsBottom
350
DF
  3
MultiPageSettings/GlueMarginsLeft
350
E0
  3
MultiPageSettings/GlueMarginsRight
350
E1
  3
MultiPageSettings/GlueMarginsTop
350
E2
  3
MultiPageSettings/PrintCropMarks
350
E3
  3
MultiPageSettings/Rows
350
E4
  3
PageSettings/OffsetX
350
E5
  3
PageSettings/OffsetY
350
E6
  3
PageSettings/PageOrientation
350
E7
  3
PageSettings/PaperHeight
350
E8
  3
PageSettings/PaperWidth
350
E9
  3
PageSettings/Scale
350
EA
  3
PageSettings/ShowPaperBorders
350
EB
  3
PageTagSettings/EnablePageTags
350
EC
  3
PageTagSettings/TagAlignment
350
ED
  3
PageTagSettings/TagFont
350
EE
  3
PageTagSettings/TagPosition
350
EF
  3
QCADVersion
350
F0
  3
UnitSettings/PaperUnit
350
F1
  3
ViewportCenter
350
F2
  3
ViewportHeight
350
F3
  3
ViewportWidth
350
F4
  0
XRECORD
  5
B8
330
B5
100
AcDbXrecord
280
1
1000
White
  0
XRECORD
  5
B9
330
B5
100
AcDbXrecord
280
1
1000
FullColor
  0
XRECORD
  5
BA
330
B5
100
AcDbXrecord
280
1
 90
0
  0
XRECORD
  5
BB
330
B5
100
AcDbXrecord
280
1
 90
0
  0
XRECORD
  5
BC
330
B5
100
AcDbXrecord
280
1
 90
46
  0
XRECORD
  5
BD
330
B5
100
AcDbXrecord
280
1
1000
DejaVu Sans
  0
XRECORD
  5
BE
330
B5
100
AcDbXrecord
280
1
1000
By Layer
  0
XRECORD
  5
BF
330
B5
100
AcDbXrecord
280
1
290
1
  0
XRECORD
  5
C0
330
B5
100
AcDbXrecord
280
1
 90
2
  0
XRECORD
  5
C1
330
B5
100
AcDbXrecord
280
1
 90
4
  0
XRECORD
  5
C2
330
B5
100
AcDbXrecord
280
1
290
1
  0
XRECORD
  5
C3
330
B5
100
AcDbXrecord
280
1
290
1
  0
XRECORD
  5
C4
330
B5
100
AcDbXrecord
280
1
290
1
  0
XRECORD
  5
C5
330
B5
100
AcDbXrecord
280
1
290
1
  0
XRECORD
  5
C6
330
B5
100
AcDbXrecord
280
1
1000
auto
  0
XRECORD
  5
C7
330
B5
100
AcDbXrecord
280
1
1000
auto
  0
XRECORD
  5
C8
330
B5
100
AcDbXrecord
280
1
1000
auto
  0
XRECORD
  5
C9
330
B5
100
AcDbXrecord
280
1
1000
auto
  0
XRECORD
  5
CA
330
B5
100
AcDbXrecord
280
1
1000
auto
  0
XRECORD
  5
CB
330
B5
100
AcDbXrecord
280
1
1000
auto
  0
XRECORD
  5
CC
330
B5
100
AcDbXrecord
280
1
1000
auto
  0
XRECORD
  5
CD
330
B5
100
AcDbXrecord
280
1
1000
auto
  0
XRECORD
  5
CE
330
B5
100
AcDbXrecord
280
1
290
0
  0
XRECORD
  5
CF
330
B5
100
AcDbXrecord
280
1
290
0
  0
XRECORD
  5
D0
330
B5
100
AcDbXrecord
280
1
290
0
  0
XRECORD
  5
D1
330
B5
100
AcDbXrecord
280
1
290
0
  0
XRECORD
  5
D2
330
B5
100
AcDbXrecord
280
1
 90
65537
  0
XRECORD
  5
D3
330
B5
100
AcDbXrecord
280
1
 90
65537
  0
XRECORD
  5
D4
330
B5
100
AcDbXrecord
280
1
 90
65537
  0
XRECORD
  5
D5
330
B5
100
AcDbXrecord
280
1
 90
65537
  0
XRECORD
  5
D6
330
B5
100
AcDbXrecord
280
1
1000
auto
  0
XRECORD
  5
D7
330
B5
100
AcDbXrecord
280
1
1000
auto
  0
XRECORD
  5
D8
330
B5
100
AcDbXrecord
280
1
1000
auto
  0
XRECORD
  5
D9
330
B5
100
AcDbXrecord
280
1
1000
auto
  0
XRECORD
  5
DA
330
B5
100
AcDbXrecord
280
1
1000
auto
  0
XRECORD
  5
DB
330
B5
100
AcDbXrecord
280
1
1000
auto
  0
XRECORD
  5
DC
330
B5
100
AcDbXrecord
280
1
1000
auto
  0
XRECORD
  5
DD
330
B5
100
AcDbXrecord
280
1
1000
auto
  0
XRECORD
  5
DE
330
B5
100
AcDbXrecord
280
1
 90
1
  0
XRECORD
  5
DF
330
B5
100
AcDbXrecord
280
1
 40
10.0
  0
XRECORD
  5
E0
330
B5
100
AcDbXrecord
280
1
 40
10.0
  0
XRECORD
  5
E1
330
B5
100
AcDbXrecord
280
1
 40
10.0
  0
XRECORD
  5
E2
330
B5
100
AcDbXrecord
280
1
 40
10.0
  0
XRECORD
  5
E3
330
B5
100
AcDbXrecord
280
1
290
0
  0
XRECORD
  5
E4
330
B5
100
AcDbXrecord
280
1
 90
1
  0
XRECORD
  5
E5
330
B5
100
AcDbXrecord
280
1
 40
0.6612648221343879
  0
XRECORD
  5
E6
330
B5
100
AcDbXrecord
280
1
 40
32.6980237154150331
  0
XRECORD
  5
E7
330
B5
100
AcDbXrecord
280
1
1000
Landscape
  0
XRECORD
  5
E8
330
B5
100
AcDbXrecord
280
1
 40
297.0
  0
XRECORD
  5
E9
330
B5
100
AcDbXrecord
280
1
 40
210.0
  0
XRECORD
  5
EA
330
B5
100
AcDbXrecord
280
1
1000
4:1
  0
XRECORD
  5
EB
330
B5
100
AcDbXrecord
280
1
290
1
  0
XRECORD
  5
EC
330
B5
100
AcDbXrecord
280
1
290
0
  0
XRECORD
  5
ED
330
B5
100
AcDbXrecord
280
1
1000
Inside
  0
XRECORD
  5
EE
330
B5
100
AcDbXrecord
280
1
1000
Arial,10,-1,5,50,0,0,0,0,0
  0
XRECORD
  5
EF
330
B5
100
AcDbXrecord
280
1
1000
TopLeft
  0
XRECORD
  5
F0
330
B5
100
AcDbXrecord
280
1
1000
3.27.1
  0
XRECORD
  5
F1
330
B5
100
AcDbXrecord
280
1
 90
4
  0
XRECORD
  5
F3
330
B5
100
AcDbXrecord
280
1
 40
77.5920948616600867
  0
XRECORD
  5
F4
330
B5
100
AcDbXrecord
280
1
 40
130.6814229249011987
  0
ENDSEC
  0
EOF
