999
dxflib 3.26.4.0
  0
SECTION
  2
HEADER
  9
$ACADVER
  1
AC1015
  9
$HANDSEED
  5
FFFF
  9
$DIMADEC
 70
0
  9
$DIMASZ
 40
2.5
  9
$DIMATFIT
 70
0
  9
$DIMAUNIT
 70
0
  9
$DIMAZIN
 70
2
  9
$DIMBLK
  1
0
  9
$DIMBLK1
  1
0
  9
$DIMBLK2
  1
0
  9
$DIMDEC
 70
4
  9
$DIMDLI
 40
5.0
  9
$DIMDSEP
 70
46
  9
$DIMEXE
 40
1.25
  9
$DIMEXO
 40
0.625
  9
$DIMGAP
 40
0.625
  9
$DIMLFAC
 40
0.0
  9
$DIMLUNIT
 70
2
  9
$DIMSCALE
 40
1.0
  9
$DIMTAD
 70
1
  9
$DIMTIH
 70
0
  9
$DIMTSZ
 40
0.0
  9
$DIMTXT
 40
2.5
  9
$DIMZIN
 70
8
  9
$DWGCODEPAGE
  3
ANSI_1252
  9
$INSUNITS
 70
4
  9
$LTSCALE
 40
1.0
  9
$MAXACTVP
 70
64
  9
$MEASUREMENT
 70
1
  9
$MIRRTEXT
 70
0
  9
$PDMODE
 70
0
  9
$PDSIZE
 40
0.0
  0
ENDSEC
  0
SECTION
  2
TABLES
  0
TABLE
  2
VPORT
  5
8
100
AcDbSymbolTable
 70
1
  0
VPORT
  5
30
100
AcDbSymbolTableRecord
100
AcDbViewportTableRecord
  2
*Active
 70
0
 10
0.0
 20
0.0
 11
1.0
 21
1.0
 12
286.3055555555554861
 22
148.5
 13
0.0
 23
0.0
 14
10.0
 24
10.0
 15
10.0
 25
10.0
 16
0.0
 26
0.0
 36
1.0
 17
0.0
 27
0.0
 37
0.0
 40
297.0
 41
1.92798353909465
 42
50.0
 43
0.0
 44
0.0
 50
0.0
 51
0.0
 71
0
 72
100
 73
1
 74
3
 75
1
 76
1
 77
0
 78
0
281
0
 65
1
110
0.0
120
0.0
130
0.0
111
1.0
121
0.0
131
0.0
112
0.0
122
1.0
132
0.0
 79
0
146
0.0
  0
ENDTAB
  0
TABLE
  2
LTYPE
  5
5
100
AcDbSymbolTable
 70
41
  0
LTYPE
  5
16
100
AcDbSymbolTableRecord
100
AcDbLinetypeTableRecord
  2
Continuous
 70
0
  3
Solid line
 72
65
 73
0
 40
0.0
  0
LTYPE
  5
31
100
AcDbSymbolTableRecord
100
AcDbLinetypeTableRecord
  2
DOT
 70
0
  3
Dot . . . . . . . . . . . . . . . . . . . . . . . .
 72
65
 73
2
 40
6.3499999999999996
 49
0.1
 74
0
 49
-6.25
 74
0
  0
LTYPE
  5
32
100
AcDbSymbolTableRecord
100
AcDbLinetypeTableRecord
  2
ACAD_ISO05W100
 70
0
  3
ISO long-dash double-dot ____ .. ____ .. ____ . 
 72
65
 73
6
 40
33.0000000000000071
 49
24.0
 74
0
 49
-2.9500000000000002
 74
0
 49
0.1
 74
0
 49
-2.9000000000000004
 74
0
 49
0.1
 74
0
 49
-2.9500000000000002
 74
0
  0
LTYPE
  5
33
100
AcDbSymbolTableRecord
100
AcDbLinetypeTableRecord
  2
ACAD_ISO15W100
 70
0
  3
ISO double-dash triple-dot __ __ . . . __ __ . .
 72
65
 73
10
 40
39.0000000000000071
 49
12.0
 74
0
 49
-3.0
 74
0
 49
12.0
 74
0
 49
-2.9500000000000002
 74
0
 49
0.1
 74
0
 49
-2.9000000000000004
 74
0
 49
0.1
 74
0
 49
-2.9000000000000004
 74
0
 49
0.1
 74
0
 49
-2.9500000000000002
 74
0
  0
LTYPE
  5
34
100
AcDbSymbolTableRecord
100
AcDbLinetypeTableRecord
  2
DASHEDX2
 70
0
  3
Dashed (2x) ____  ____  ____  ____  ____  ___
 72
65
 73
2
 40
38.0999999999999943
 49
25.3999999999999986
 74
0
 49
-12.6999999999999993
 74
0
  0
LTYPE
  5
35
100
AcDbSymbolTableRecord
100
AcDbLinetypeTableRecord
  2
HIDDEN2
 70
0
  3
Hidden (.5x) _ _ _ _ _ _ _ _ _ _ _ _ _ _ _ _ _ 
 72
65
 73
2
 40
4.7624999999999993
 49
3.1749999999999998
 74
0
 49
-1.5874999999999999
 74
0
  0
LTYPE
  5
36
100
AcDbSymbolTableRecord
100
AcDbLinetypeTableRecord
  2
ACAD_ISO06W100
 70
0
  3
ISO long-dash triple-dot ____ ... ____ ... ____
 72
65
 73
8
 40
36.0000000000000071
 49
24.0
 74
0
 49
-2.9500000000000002
 74
0
 49
0.1
 74
0
 49
-2.9000000000000004
 74
0
 49
0.1
 74
0
 49
-2.9000000000000004
 74
0
 49
0.1
 74
0
 49
-2.9500000000000002
 74
0
  0
LTYPE
  5
37
100
AcDbSymbolTableRecord
100
AcDbLinetypeTableRecord
  2
DIVIDE2
 70
0
  3
Divide (.5x) __..__..__..__..__..__..__..__.._
 72
65
 73
6
 40
15.8749999999999982
 49
6.3499999999999996
 74
0
 49
-3.125
 74
0
 49
0.1
 74
0
 49
-3.0750000000000002
 74
0
 49
0.1
 74
0
 49
-3.125
 74
0
  0
LTYPE
  5
38
100
AcDbSymbolTableRecord
100
AcDbLinetypeTableRecord
  2
DASHED2
 70
0
  3
Dashed (.5x) _ _ _ _ _ _ _ _ _ _ _ _ _ _ _ _ _ 
 72
65
 73
2
 40
9.5249999999999986
 49
6.3499999999999996
 74
0
 49
-3.1749999999999998
 74
0
  0
LTYPE
  5
15
100
AcDbSymbolTableRecord
100
AcDbLinetypeTableRecord
  2
BYLAYER
 70
0
  3

 72
65
 73
0
 40
0.0
  0
LTYPE
  5
39
100
AcDbSymbolTableRecord
100
AcDbLinetypeTableRecord
  2
BORDER
 70
0
  3
Border __ __ . __ __ . __ __ . __ __ . __ __ .
 72
65
 73
6
 40
44.4499999999999957
 49
12.6999999999999993
 74
0
 49
-6.3499999999999996
 74
0
 49
12.6999999999999993
 74
0
 49
-6.2999999999999998
 74
0
 49
0.1
 74
0
 49
-6.2999999999999998
 74
0
  0
LTYPE
  5
3A
100
AcDbSymbolTableRecord
100
AcDbLinetypeTableRecord
  2
DASHDOTX2
 70
0
  3
Dash dot (2x) ____  .  ____  .  ____  .  ___
 72
65
 73
4
 40
50.7999999999999972
 49
25.3999999999999986
 74
0
 49
-12.6499999999999986
 74
0
 49
0.1
 74
0
 49
-12.6499999999999986
 74
0
  0
LTYPE
  5
3B
100
AcDbSymbolTableRecord
100
AcDbLinetypeTableRecord
  2
PHANTOM
 70
0
  3
Phantom ______  __  __  ______  __  __  ______ 
 72
65
 73
6
 40
63.5000000000000071
 49
31.75
 74
0
 49
-6.3499999999999996
 74
0
 49
6.3499999999999996
 74
0
 49
-6.3499999999999996
 74
0
 49
6.3499999999999996
 74
0
 49
-6.3499999999999996
 74
0
  0
LTYPE
  5
3C
100
AcDbSymbolTableRecord
100
AcDbLinetypeTableRecord
  2
CENTERX2
 70
0
  3
Center (2x) ________  __  ________  __  _____
 72
65
 73
4
 40
101.6000000000000085
 49
63.5
 74
0
 49
-12.6999999999999993
 74
0
 49
12.6999999999999993
 74
0
 49
-12.6999999999999993
 74
0
  0
LTYPE
  5
3D
100
AcDbSymbolTableRecord
100
AcDbLinetypeTableRecord
  2
PHANTOM2
 70
0
  3
Phantom (.5x) ___ _ _ ___ _ _ ___ _ _ ___ _ _
 72
65
 73
6
 40
31.7500000000000036
 49
15.875
 74
0
 49
-3.1749999999999998
 74
0
 49
3.1749999999999998
 74
0
 49
-3.1749999999999998
 74
0
 49
3.1749999999999998
 74
0
 49
-3.1749999999999998
 74
0
  0
LTYPE
  5
3E
100
AcDbSymbolTableRecord
100
AcDbLinetypeTableRecord
  2
ACAD_ISO13W100
 70
0
  3
ISO double-dash double-dot __ __ . . __ __ . . _
 72
65
 73
8
 40
36.0000000000000071
 49
12.0
 74
0
 49
-3.0
 74
0
 49
12.0
 74
0
 49
-2.9500000000000002
 74
0
 49
0.1
 74
0
 49
-2.9000000000000004
 74
0
 49
0.1
 74
0
 49
-2.9500000000000002
 74
0
  0
LTYPE
  5
3F
100
AcDbSymbolTableRecord
100
AcDbLinetypeTableRecord
  2
DIVIDE
 70
0
  3
Divide ____ . . ____ . . ____ . . ____ . . ____
 72
65
 73
6
 40
31.7500000000000036
 49
12.6999999999999993
 74
0
 49
-6.2999999999999998
 74
0
 49
0.1
 74
0
 49
-6.25
 74
0
 49
0.1
 74
0
 49
-6.2999999999999998
 74
0
  0
LTYPE
  5
40
100
AcDbSymbolTableRecord
100
AcDbLinetypeTableRecord
  2
ACAD_ISO10W100
 70
0
  3
ISO dash dot __ . __ . __ . __ . __ . __ . __ . 
 72
65
 73
4
 40
18.0
 49
12.0
 74
0
 49
-2.9500000000000002
 74
0
 49
0.1
 74
0
 49
-2.9500000000000002
 74
0
  0
LTYPE
  5
41
100
AcDbSymbolTableRecord
100
AcDbLinetypeTableRecord
  2
ACAD_ISO12W100
 70
0
  3
ISO dash double-dot __ . . __ . . __ . . __ . . 
 72
65
 73
6
 40
21.0
 49
12.0
 74
0
 49
-2.9500000000000002
 74
0
 49
0.1
 74
0
 49
-2.9000000000000004
 74
0
 49
0.1
 74
0
 49
-2.9500000000000002
 74
0
  0
LTYPE
  5
42
100
AcDbSymbolTableRecord
100
AcDbLinetypeTableRecord
  2
BORDERX2
 70
0
  3
Border (2x) ____  ____  .  ____  ____  .  ___
 72
65
 73
6
 40
88.8999999999999773
 49
25.3999999999999986
 74
0
 49
-12.6999999999999993
 74
0
 49
25.3999999999999986
 74
0
 49
-12.6499999999999986
 74
0
 49
0.1
 74
0
 49
-12.6499999999999986
 74
0
  0
LTYPE
  5
43
100
AcDbSymbolTableRecord
100
AcDbLinetypeTableRecord
  2
CENTER
 70
0
  3
Center ____ _ ____ _ ____ _ ____ _ ____ _ ____
 72
65
 73
4
 40
50.8000000000000043
 49
31.75
 74
0
 49
-6.3499999999999996
 74
0
 49
6.3499999999999996
 74
0
 49
-6.3499999999999996
 74
0
  0
LTYPE
  5
44
100
AcDbSymbolTableRecord
100
AcDbLinetypeTableRecord
  2
DASHDOT
 70
0
  3
Dash dot __ . __ . __ . __ . __ . __ . __ . __
 72
65
 73
4
 40
25.4000000000000021
 49
12.6999999999999993
 74
0
 49
-6.2999999999999998
 74
0
 49
0.1
 74
0
 49
-6.2999999999999998
 74
0
  0
LTYPE
  5
45
100
AcDbSymbolTableRecord
100
AcDbLinetypeTableRecord
  2
HIDDEN
 70
0
  3
Hidden __ __ __ __ __ __ __ __ __ __ __ __ __ __
 72
65
 73
2
 40
9.5249999999999986
 49
6.3499999999999996
 74
0
 49
-3.1749999999999998
 74
0
  0
LTYPE
  5
46
100
AcDbSymbolTableRecord
100
AcDbLinetypeTableRecord
  2
HIDDENX2
 70
0
  3
Hidden (2x) ____ ____ ____ ____ ____ ____ ____ 
 72
65
 73
2
 40
19.0499999999999972
 49
12.6999999999999993
 74
0
 49
-6.3499999999999996
 74
0
  0
LTYPE
  5
47
100
AcDbSymbolTableRecord
100
AcDbLinetypeTableRecord
  2
ACAD_ISO14W100
 70
0
  3
ISO dash triple-dot __ . . . __ . . . __ . . . _
 72
65
 73
8
 40
24.0000000000000036
 49
12.0
 74
0
 49
-2.9500000000000002
 74
0
 49
0.1
 74
0
 49
-2.9000000000000004
 74
0
 49
0.1
 74
0
 49
-2.9000000000000004
 74
0
 49
0.1
 74
0
 49
-2.9500000000000002
 74
0
  0
LTYPE
  5
48
100
AcDbSymbolTableRecord
100
AcDbLinetypeTableRecord
  2
DOTX2
 70
0
  3
Dot (2x) .  .  .  .  .  .  .  .  .  .  .  .  .  .
 72
65
 73
2
 40
12.6999999999999993
 49
0.1
 74
0
 49
-12.5999999999999996
 74
0
  0
LTYPE
  5
49
100
AcDbSymbolTableRecord
100
AcDbLinetypeTableRecord
  2
ACAD_ISO07W100
 70
0
  3
ISO dot . . . . . . . . . . . . . . . . . . . . 
 72
65
 73
2
 40
3.0
 49
0.1
 74
0
 49
-2.8999999999999999
 74
0
  0
LTYPE
  5
4A
100
AcDbSymbolTableRecord
100
AcDbLinetypeTableRecord
  2
DIVIDEX2
 70
0
  3
Divide (2x) ________  .  .  ________  .  .  _
 72
65
 73
6
 40
63.5
 49
25.3999999999999986
 74
0
 49
-12.6499999999999986
 74
0
 49
0.1
 74
0
 49
-12.5999999999999979
 74
0
 49
0.1
 74
0
 49
-12.6499999999999986
 74
0
  0
LTYPE
  5
4B
100
AcDbSymbolTableRecord
100
AcDbLinetypeTableRecord
  2
ACAD_ISO09W100
 70
0
  3
ISO long-dash double-short-dash ____ __ __ ____
 72
65
 73
6
 40
45.0
 49
24.0
 74
0
 49
-3.0
 74
0
 49
6.0
 74
0
 49
-3.0
 74
0
 49
6.0
 74
0
 49
-3.0
 74
0
  0
LTYPE
  5
4C
100
AcDbSymbolTableRecord
100
AcDbLinetypeTableRecord
  2
ACAD_ISO04W100
 70
0
  3
ISO long-dash dot ____ . ____ . ____ . ____ . _
 72
65
 73
4
 40
30.0
 49
24.0
 74
0
 49
-2.9500000000000002
 74
0
 49
0.1
 74
0
 49
-2.9500000000000002
 74
0
  0
LTYPE
  5
4D
100
AcDbSymbolTableRecord
100
AcDbLinetypeTableRecord
  2
ACAD_ISO02W100
 70
0
  3
ISO dash __ __ __ __ __ __ __ __ __ __ __ __ __
 72
65
 73
2
 40
15.0
 49
12.0
 74
0
 49
-3.0
 74
0
  0
LTYPE
  5
4E
100
AcDbSymbolTableRecord
100
AcDbLinetypeTableRecord
  2
ACAD_ISO11W100
 70
0
  3
ISO double-dash dot __ __ . __ __ . __ __ . __ _
 72
65
 73
6
 40
33.0
 49
12.0
 74
0
 49
-3.0
 74
0
 49
12.0
 74
0
 49
-2.9500000000000002
 74
0
 49
0.1
 74
0
 49
-2.9500000000000002
 74
0
  0
LTYPE
  5
4F
100
AcDbSymbolTableRecord
100
AcDbLinetypeTableRecord
  2
BORDER2
 70
0
  3
Border (.5x) __.__.__.__.__.__.__.__.__.__.__.
 72
65
 73
6
 40
22.2250000000000014
 49
6.3499999999999996
 74
0
 49
-3.1749999999999998
 74
0
 49
6.3499999999999996
 74
0
 49
-3.125
 74
0
 49
0.1
 74
0
 49
-3.125
 74
0
  0
LTYPE
  5
50
100
AcDbSymbolTableRecord
100
AcDbLinetypeTableRecord
  2
ACAD_ISO03W100
 70
0
  3
ISO dash space __    __    __    __    __    __
 72
65
 73
2
 40
30.0
 49
12.0
 74
0
 49
-18.0
 74
0
  0
LTYPE
  5
14
100
AcDbSymbolTableRecord
100
AcDbLinetypeTableRecord
  2
BYBLOCK
 70
0
  3

 72
65
 73
0
 40
0.0
  0
LTYPE
  5
51
100
AcDbSymbolTableRecord
100
AcDbLinetypeTableRecord
  2
DOT2
 70
0
  3
Dot (.5x) ........................................
 72
65
 73
2
 40
3.1749999999999998
 49
0.1
 74
0
 49
-3.0749999999999997
 74
0
  0
LTYPE
  5
52
100
AcDbSymbolTableRecord
100
AcDbLinetypeTableRecord
  2
ACAD_ISO08W100
 70
0
  3
ISO long-dash short-dash ____ __ ____ __ ____ _
 72
65
 73
4
 40
36.0
 49
24.0
 74
0
 49
-3.0
 74
0
 49
6.0
 74
0
 49
-3.0
 74
0
  0
LTYPE
  5
53
100
AcDbSymbolTableRecord
100
AcDbLinetypeTableRecord
  2
CENTER2
 70
0
  3
Center (.5x) ___ _ ___ _ ___ _ ___ _ ___ _ ___
 72
65
 73
4
 40
28.5750000000000028
 49
19.0500000000000007
 74
0
 49
-3.1749999999999998
 74
0
 49
3.1749999999999998
 74
0
 49
-3.1749999999999998
 74
0
  0
LTYPE
  5
54
100
AcDbSymbolTableRecord
100
AcDbLinetypeTableRecord
  2
DASHED
 70
0
  3
Dashed __ __ __ __ __ __ __ __ __ __ __ __ __ _
 72
65
 73
2
 40
19.0499999999999972
 49
12.6999999999999993
 74
0
 49
-6.3499999999999996
 74
0
  0
LTYPE
  5
55
100
AcDbSymbolTableRecord
100
AcDbLinetypeTableRecord
  2
DASHDOT2
 70
0
  3
Dash dot (.5x) _._._._._._._._._._._._._._._.
 72
65
 73
4
 40
12.6999999999999993
 49
6.3499999999999996
 74
0
 49
-3.125
 74
0
 49
0.1
 74
0
 49
-3.125
 74
0
  0
LTYPE
  5
56
100
AcDbSymbolTableRecord
100
AcDbLinetypeTableRecord
  2
PHANTOMX2
 70
0
  3
Phantom (2x) ____________    ____    ____   _
 72
65
 73
6
 40
127.0000000000000142
 49
63.5
 74
0
 49
-12.6999999999999993
 74
0
 49
12.6999999999999993
 74
0
 49
-12.6999999999999993
 74
0
 49
12.6999999999999993
 74
0
 49
-12.6999999999999993
 74
0
  0
ENDTAB
  0
TABLE
  2
LAYER
  5
2
100
AcDbSymbolTable
 70
9
  0
LAYER
  5
57
100
AcDbSymbolTableRecord
100
AcDbLayerTableRecord
  2
blue
 70
0
 62
5
420
255
  6
Continuous
370
40
390
F
  0
LAYER
  5
10
100
AcDbSymbolTableRecord
100
AcDbLayerTableRecord
  2
0
 70
0
 62
7
420
0
  6
Continuous
370
40
390
F
  0
LAYER
  5
58
100
AcDbSymbolTableRecord
100
AcDbLayerTableRecord
  2
blue--
 70
0
 62
5
420
255
  6
ACAD_ISO02W100
370
25
390
F
  0
LAYER
  5
59
100
AcDbSymbolTableRecord
100
AcDbLayerTableRecord
  2
--
 70
0
 62
7
420
0
  6
ACAD_ISO02W100
370
25
390
F
  0
LAYER
  5
5A
100
AcDbSymbolTableRecord
100
AcDbLayerTableRecord
  2
yellow
 70
0
 62
54
420
8421376
  6
Continuous
370
40
390
F
  0
LAYER
  5
5B
100
AcDbSymbolTableRecord
100
AcDbLayerTableRecord
  2
yellow--
 70
0
 62
54
420
8421376
  6
ACAD_ISO02W100
370
25
390
F
  0
LAYER
  5
5C
100
AcDbSymbolTableRecord
100
AcDbLayerTableRecord
  2
dim
 70
0
 62
252
420
10526884
  6
Continuous
370
25
390
F
  0
LAYER
  5
5D
100
AcDbSymbolTableRecord
100
AcDbLayerTableRecord
  2
yellow-
 70
0
 62
54
420
8421376
  6
Continuous
370
25
390
F
  0
LAYER
  5
5E
100
AcDbSymbolTableRecord
100
AcDbLayerTableRecord
  2
blue-
 70
0
 62
5
420
255
  6
Continuous
370
25
390
F
  0
ENDTAB
  0
TABLE
  2
STYLE
  5
3
100
AcDbSymbolTable
 70
19
  0
STYLE
  5
5F
100
AcDbSymbolTableRecord
100
AcDbTextStyleTableRecord
  2
Standard
 70
0
 40
0.0
 41
1.0
 50
0.0
 71
0
 42
2.5
  3

  4

1001
ACAD
1000
txt
1071
0
  0
STYLE
  5
60
100
AcDbSymbolTableRecord
100
AcDbTextStyleTableRecord
  2
textstyle0
 70
0
 40
0.0
 41
1.0
 50
0.0
 71
0
 42
0.984252
  3

  4

1001
ACAD
1000
Liberation Sans
1071
33554432
  0
STYLE
  5
61
100
AcDbSymbolTableRecord
100
AcDbTextStyleTableRecord
  2
textstyle1
 70
0
 40
0.0
 41
1.0
 50
0.0
 71
0
 42
0.984252
  3

  4

1001
ACAD
1000
Liberation Sans
1071
33554432
  0
STYLE
  5
62
100
AcDbSymbolTableRecord
100
AcDbTextStyleTableRecord
  2
textstyle2
 70
0
 40
0.0
 41
1.0
 50
0.0
 71
0
 42
0.984252
  3

  4

1001
ACAD
1000
Liberation Sans
1071
33554432
  0
STYLE
  5
63
100
AcDbSymbolTableRecord
100
AcDbTextStyleTableRecord
  2
textstyle3
 70
0
 40
0.0
 41
1.0
 50
0.0
 71
0
 42
0.984252
  3

  4

1001
ACAD
1000
Liberation Sans
1071
33554432
  0
STYLE
  5
64
100
AcDbSymbolTableRecord
100
AcDbTextStyleTableRecord
  2
textstyle4
 70
0
 40
0.0
 41
1.0
 50
0.0
 71
0
 42
0.984252
  3

  4

1001
ACAD
1000
Liberation Sans
1071
33554432
  0
STYLE
  5
65
100
AcDbSymbolTableRecord
100
AcDbTextStyleTableRecord
  2
textstyle5
 70
0
 40
0.0
 41
1.0
 50
0.0
 71
0
 42
0.984252
  3

  4

1001
ACAD
1000
Liberation Sans
1071
33554432
  0
STYLE
  5
66
100
AcDbSymbolTableRecord
100
AcDbTextStyleTableRecord
  2
textstyle6
 70
0
 40
0.0
 41
1.0
 50
0.0
 71
0
 42
0.984252
  3

  4

1001
ACAD
1000
Liberation Sans
1071
33554432
  0
STYLE
  5
67
100
AcDbSymbolTableRecord
100
AcDbTextStyleTableRecord
  2
textstyle7
 70
0
 40
0.0
 41
1.0
 50
0.0
 71
0
 42
0.984252
  3

  4

1001
ACAD
1000
Liberation Sans
1071
33554432
  0
STYLE
  5
68
100
AcDbSymbolTableRecord
100
AcDbTextStyleTableRecord
  2
textstyle8
 70
0
 40
0.0
 41
1.0
 50
0.0
 71
0
 42
0.984252
  3

  4

1001
ACAD
1000
Liberation Sans
1071
33554432
  0
STYLE
  5
69
100
AcDbSymbolTableRecord
100
AcDbTextStyleTableRecord
  2
textstyle9
 70
0
 40
0.0
 41
1.0
 50
0.0
 71
0
 42
0.984252
  3

  4

1001
ACAD
1000
Liberation Sans
1071
33554432
  0
STYLE
  5
6A
100
AcDbSymbolTableRecord
100
AcDbTextStyleTableRecord
  2
textstyle10
 70
0
 40
0.0
 41
1.0
 50
0.0
 71
0
 42
0.984252
  3

  4

1001
ACAD
1000
Liberation Sans
1071
33554432
  0
STYLE
  5
6B
100
AcDbSymbolTableRecord
100
AcDbTextStyleTableRecord
  2
textstyle11
 70
0
 40
0.0
 41
1.0
 50
0.0
 71
0
 42
0.984252
  3

  4

1001
ACAD
1000
Liberation Sans
1071
33554432
  0
STYLE
  5
6C
100
AcDbSymbolTableRecord
100
AcDbTextStyleTableRecord
  2
textstyle12
 70
0
 40
0.0
 41
1.0
 50
0.0
 71
0
 42
0.984252
  3

  4

1001
ACAD
1000
Liberation Sans
1071
33554432
  0
STYLE
  5
6D
100
AcDbSymbolTableRecord
100
AcDbTextStyleTableRecord
  2
textstyle13
 70
0
 40
0.0
 41
1.0
 50
0.0
 71
0
 42
0.984252
  3

  4

1001
ACAD
1000
Liberation Sans
1071
33554432
  0
STYLE
  5
6E
100
AcDbSymbolTableRecord
100
AcDbTextStyleTableRecord
  2
textstyle14
 70
0
 40
0.0
 41
1.0
 50
0.0
 71
0
 42
0.984252
  3

  4

1001
ACAD
1000
Liberation Sans
1071
33554432
  0
STYLE
  5
6F
100
AcDbSymbolTableRecord
100
AcDbTextStyleTableRecord
  2
textstyle15
 70
0
 40
0.0
 41
1.0
 50
0.0
 71
0
 42
0.984252
  3

  4

1001
ACAD
1000
Liberation Sans
1071
33554432
  0
STYLE
  5
70
100
AcDbSymbolTableRecord
100
AcDbTextStyleTableRecord
  2
textstyle16
 70
0
 40
0.0
 41
1.0
 50
0.0
 71
0
 42
0.984252
  3

  4

1001
ACAD
1000
Liberation Sans
1071
33554432
  0
STYLE
  5
71
100
AcDbSymbolTableRecord
100
AcDbTextStyleTableRecord
  2
textstyle17
 70
0
 40
0.0
 41
1.0
 50
0.0
 71
0
 42
0.984252
  3

  4

1001
ACAD
1000
Liberation Sans
1071
33554432
  0
ENDTAB
  0
TABLE
  2
VIEW
  5
6
100
AcDbSymbolTable
 70
0
  0
ENDTAB
  0
TABLE
  2
UCS
  5
7
100
AcDbSymbolTable
 70
0
  0
ENDTAB
  0
TABLE
  2
APPID
  5
9
100
AcDbSymbolTable
 70
1
  0
APPID
  5
12
100
AcDbSymbolTableRecord
100
AcDbRegAppTableRecord
  2
ACAD
 70
0
  0
APPID
  5
72
100
AcDbSymbolTableRecord
100
AcDbRegAppTableRecord
  2
QCAD
 70
0
  0
ENDTAB
  0
TABLE
  2
DIMSTYLE
  5
A
100
AcDbSymbolTable
 70
1
100
AcDbDimStyleTable
 71
0
  0
DIMSTYLE
105
27
100
AcDbSymbolTableRecord
100
AcDbDimStyleTableRecord
  2
Standard
 41
2.5
 42
0.625
 43
3.75
 44
1.25
 70
0
 73
0
 74
0
 77
1
 78
8
140
2.5
141
2.5
143
0.03937007874016
147
0.625
171
3
172
1
271
2
272
2
274
3
278
44
283
0
284
8
340
5F
  0
ENDTAB
  0
TABLE
  2
BLOCK_RECORD
  5
1
100
AcDbSymbolTable
 70
1
  0
BLOCK_RECORD
  5
1F
100
AcDbSymbolTableRecord
100
AcDbBlockTableRecord
  2
*Model_Space
340
22
  0
BLOCK_RECORD
  5
1B
100
AcDbSymbolTableRecord
100
AcDbBlockTableRecord
  2
*Paper_Space
340
1E
  0
BLOCK_RECORD
  5
23
100
AcDbSymbolTableRecord
100
AcDbBlockTableRecord
  2
*Paper_Space0
340
26
  0
ENDTAB
  0
ENDSEC
  0
SECTION
  2
BLOCKS
  0
BLOCK
  5
20
100
AcDbEntity
  8
0
100
AcDbBlockBegin
  2
*Model_Space
 70
0
 10
0.0
 20
0.0
 30
0.0
  3
*Model_Space
  1

  0
ENDBLK
  5
21
100
AcDbEntity
  8
0
100
AcDbBlockEnd
  0
BLOCK
  5
1C
100
AcDbEntity
 67
1
  8
0
100
AcDbBlockBegin
  2
*Paper_Space
 70
0
 10
0.0
 20
0.0
 30
0.0
  3
*Paper_Space
  1

  0
ENDBLK
  5
1D
100
AcDbEntity
 67
1
  8
0
100
AcDbBlockEnd
  0
BLOCK
  5
24
100
AcDbEntity
  8
0
100
AcDbBlockBegin
  2
*Paper_Space0
 70
0
 10
0.0
 20
0.0
 30
0.0
  3
*Paper_Space0
  1

  0
ENDBLK
  5
25
100
AcDbEntity
  8
0
100
AcDbBlockEnd
  0
ENDSEC
  0
SECTION
  2
ENTITIES
  0
LINE
  5
73
100
AcDbEntity
  8
yellow
 62
256
370
-1
 48
1.0
  6
BYLAYER
100
AcDbLine
 10
49.0
 20
62.9999999999999929
 30
0.0
 11
49.0
 21
50.9999999999999929
 31
0.0
  0
LINE
  5
74
100
AcDbEntity
  8
yellow
 62
256
370
-1
 48
1.0
  6
BYLAYER
100
AcDbLine
 10
49.0
 20
50.9999999999999929
 30
0.0
 11
19.0
 21
51.0
 31
0.0
  0
LINE
  5
75
100
AcDbEntity
  8
yellow
 62
256
370
-1
 48
1.0
  6
BYLAYER
100
AcDbLine
 10
19.0
 20
51.0
 30
0.0
 11
19.0
 21
62.9999999999999929
 31
0.0
  0
LINE
  5
76
100
AcDbEntity
  8
yellow
 62
256
370
-1
 48
1.0
  6
BYLAYER
100
AcDbLine
 10
19.0
 20
62.9999999999999929
 30
0.0
 11
49.0
 21
62.9999999999999929
 31
0.0
  0
LINE
  5
77
100
AcDbEntity
  8
blue
 62
256
370
-1
 48
1.0
  6
BYLAYER
100
AcDbLine
 10
160.0
 20
115.954473495805459
 30
0.0
 11
192.0
 21
115.954473495805459
 31
0.0
  0
LINE
  5
78
100
AcDbEntity
  8
blue
 62
256
370
-1
 48
1.0
  6
BYLAYER
100
AcDbLine
 10
192.0
 20
115.954473495805459
 30
0.0
 11
192.0
 21
65.954473495805459
 31
0.0
  0
LINE
  5
79
100
AcDbEntity
  8
blue
 62
256
370
-1
 48
1.0
  6
BYLAYER
100
AcDbLine
 10
192.0
 20
65.954473495805459
 30
0.0
 11
160.0
 21
65.954473495805459
 31
0.0
  0
LINE
  5
7A
100
AcDbEntity
  8
blue
 62
256
370
-1
 48
1.0
  6
BYLAYER
100
AcDbLine
 10
160.0
 20
65.954473495805459
 30
0.0
 11
160.0
 21
115.954473495805459
 31
0.0
  0
LINE
  5
7B
100
AcDbEntity
  8
yellow
 62
256
370
-1
 48
1.0
  6
BYLAYER
100
AcDbLine
 10
162.0000000000000284
 20
43.954473495805459
 30
0.0
 11
194.0000000000000284
 21
43.954473495805459
 31
0.0
  0
LINE
  5
7C
100
AcDbEntity
  8
yellow
 62
256
370
-1
 48
1.0
  6
BYLAYER
100
AcDbLine
 10
194.0000000000000284
 20
43.954473495805459
 30
0.0
 11
194.0000000000000284
 21
48.954473495805459
 31
0.0
  0
LINE
  5
7D
100
AcDbEntity
  8
yellow
 62
256
370
-1
 48
1.0
  6
BYLAYER
100
AcDbLine
 10
162.0000000000000284
 20
43.954473495805459
 30
0.0
 11
174.0710678118655039
 21
56.0255413076709416
 31
0.0
  0
LINE
  5
7E
100
AcDbEntity
  8
yellow
 62
256
370
-1
 48
1.0
  6
BYLAYER
100
AcDbLine
 10
181.1421356237310079
 20
58.954473495805459
 30
0.0
 11
184.0000000000000284
 21
58.954473495805459
 31
0.0
  0
ARC
  5
7F
100
AcDbEntity
  8
yellow
 62
256
370
-1
 48
1.0
  6
BYLAYER
100
AcDbCircle
 10
181.1421356237310079
 20
48.954473495805459
 30
0.0
 40
10.0
100
AcDbArc
 50
90.0
 51
135.0000000000000568
  0
ARC
  5
80
100
AcDbEntity
  8
yellow
 62
256
370
-1
 48
1.0
  6
BYLAYER
100
AcDbCircle
 10
184.0000000000000284
 20
48.954473495805459
 30
0.0
 40
10.0
100
AcDbArc
 50
0.0
 51
90.0
  0
DIMENSION
  5
81
100
AcDbEntity
  8
dim
 62
256
370
-1
 48
1.0
  6
BYLAYER
100
AcDbDimension
 10
159.0
 20
46.9544734958054164
 30
0.0
 11
163.7097086912079931
 21
54.3158326164629486
 31
0.0
 70
1
 71
8
 72
2
 74
0
 75
0
 41
1.0
 42
0.0
  1

  3
Standard
100
AcDbAlignedDimension
 13
162.0
 23
43.9544734958054164
 33
0.0
 14
174.0710678118655039
 24
56.0255413076709345
 34
0.0
1001
ACAD
1000
DSTYLE
1002
{
1070
144
1040
1.0
1070
40
1040
1.0
1002
}
  0
DIMENSION
  5
82
100
AcDbEntity
  8
dim
 62
256
370
-1
 48
1.0
  6
BYLAYER
100
AcDbDimension
 10
181.0
 20
60.9544734958054946
 30
0.0
 11
189.3439754873801348
 21
62.8294734958056225
 31
0.0
 70
1
 71
8
 72
2
 74
0
 75
0
 41
1.0
 42
0.0
  1

  3
Standard
100
AcDbAlignedDimension
 13
181.0
 23
57.4947916406816049
 33
0.0
 14
183.8578643762690206
 24
57.4947916406818607
 34
0.0
1001
ACAD
1000
DSTYLE
1002
{
1070
144
1040
1.0
1070
40
1040
1.0
1002
}
  0
DIMENSION
  5
83
100
AcDbEntity
  8
dim
 62
256
370
-1
 48
1.0
  6
BYLAYER
100
AcDbDimension
 10
200.0000000000000284
 20
48.9544734958055301
 30
0.0
 11
198.1250000000000284
 21
46.454473495805459
 31
0.0
 70
0
 71
8
 72
2
 74
0
 75
0
 41
1.0
 42
0.0
  1

  3
Standard
100
AcDbAlignedDimension
 13
194.0000000000000284
 23
48.9544734958055017
 33
0.0
 14
194.0000000000000284
 24
43.9544734958054093
 34
0.0
 50
90.0
100
AcDbRotatedDimension
1001
ACAD
1000
DSTYLE
1002
{
1070
144
1040
1.0
1070
40
1040
1.0
1002
}
  0
MTEXT
  5
84
100
AcDbEntity
  8
dim
 62
256
370
-1
 48
1.0
  6
BYLAYER
100
AcDbMText
 10
172.672781519386092
 20
47.1989124010042076
 30
0.0
 40
0.984252
 41
0.0
 71
1
 72
1
  1
\fLiberation Sans|b0|i0|c0|p0;\H2;P=48.5 cm
  7
textstyle0
 50
0.0
 73
2
 44
1.0
  0
DIMENSION
  5
85
100
AcDbEntity
  8
dim
 62
256
370
-1
 48
1.0
  6
BYLAYER
100
AcDbDimension
 10
160.0
 20
121.9089469916109039
 30
0.0
 11
176.0
 21
123.7839469916109039
 31
0.0
 70
0
 71
8
 72
2
 74
0
 75
0
 41
1.0
 42
0.0
  1
32+2
  3
Standard
100
AcDbAlignedDimension
 13
160.0
 23
115.9544734958055017
 33
0.0
 14
192.0
 24
115.9544734958054448
 34
0.0
 50
0.0
100
AcDbRotatedDimension
1001
ACAD
1000
DSTYLE
1002
{
1070
144
1040
1.0
1070
40
1040
1.0
1002
}
  0
DIMENSION
  5
86
100
AcDbEntity
  8
dim
 62
256
370
-1
 48
1.0
  6
BYLAYER
100
AcDbDimension
 10
200.3624049399836053
 20
115.9544734958053738
 30
0.0
 11
198.4874049399836053
 21
90.9544734958054732
 31
0.0
 70
0
 71
8
 72
2
 74
0
 75
0
 41
1.0
 42
0.0
  1
50+8
  3
Standard
100
AcDbAlignedDimension
 13
192.0
 23
115.9544734958054448
 33
0.0
 14
192.0
 24
65.9544734958055017
 34
0.0
 50
90.0
100
AcDbRotatedDimension
1001
ACAD
1000
DSTYLE
1002
{
1070
144
1040
1.0
1070
40
1040
1.0
1002
}
  0
LINE
  5
87
100
AcDbEntity
  8
blue--
 62
256
370
-1
 48
1.0
  6
BYLAYER
100
AcDbLine
 10
166.0
 20
115.954473495805459
 30
0.0
 11
166.0
 21
65.954473495805459
 31
0.0
  0
LINE
  5
88
100
AcDbEntity
  8
blue--
 62
256
370
-1
 48
1.0
  6
BYLAYER
100
AcDbLine
 10
186.0
 20
115.954473495805459
 30
0.0
 11
186.0
 21
65.954473495805459
 31
0.0
  0
DIMENSION
  5
89
100
AcDbEntity
  8
dim
 62
256
370
-1
 48
1.0
  6
BYLAYER
100
AcDbDimension
 10
162.0
 20
39.7594253148748678
 30
0.0
 11
178.0
 21
41.6344253148748678
 31
0.0
 70
0
 71
8
 72
2
 74
0
 75
0
 41
1.0
 42
0.0
  1

  3
Standard
100
AcDbAlignedDimension
 13
162.0
 23
43.9544734958054164
 33
0.0
 14
194.0000000000000284
 24
43.9544734958054093
 34
0.0
 50
0.0
100
AcDbRotatedDimension
1001
ACAD
1000
DSTYLE
1002
{
1070
144
1040
1.0
1070
40
1040
1.0
1002
}
  0
MTEXT
  5
8A
100
AcDbEntity
  8
blue
 62
256
370
-1
 48
1.0
  6
BYLAYER
100
AcDbMText
 10
170.6836398849968646
 20
111.310685192120971
 30
0.0
 40
0.984252
 41
0.0
 71
1
 72
1
  1
\fLiberation Sans|b0|i0|c0|p0;\H2;\U+041a\U+043b\U+0430\U+043f\U+0430\U+043d
  7
textstyle1
 50
0.0
 73
2
 44
1.0
  0
MTEXT
  5
8B
100
AcDbEntity
  8
yellow
 62
256
370
-1
 48
1.0
  6
BYLAYER
100
AcDbMText
 10
175.5758215193860678
 20
54.4565124010042183
 30
0.0
 40
0.984252
 41
0.0
 71
1
 72
1
  1
\fLiberation Sans|b0|i0|c0|p0;\H2;\U+0411\U+043e\U+043a \U+043a\U+043b\U+0430\U+043f\U+0430\U+043d\U+0430\P2\U+0448\U+0442
  7
textstyle2
 50
0.0
 73
2
 44
1.0
  0
LINE
  5
8C
100
AcDbEntity
  8
blue
 62
256
370
-1
 48
1.0
  6
BYLAYER
100
AcDbLine
 10
162.0
 20
33.954473495805459
 30
0.0
 11
194.0
 21
33.954473495805459
 31
0.0
  0
LINE
  5
8D
100
AcDbEntity
  8
blue
 62
256
370
-1
 48
1.0
  6
BYLAYER
100
AcDbLine
 10
194.0
 20
33.954473495805459
 30
0.0
 11
194.0
 21
26.954473495805459
 31
0.0
  0
LINE
  5
8E
100
AcDbEntity
  8
blue
 62
256
370
-1
 48
1.0
  6
BYLAYER
100
AcDbLine
 10
194.0
 20
26.954473495805459
 30
0.0
 11
162.0
 21
26.954473495805459
 31
0.0
  0
LINE
  5
8F
100
AcDbEntity
  8
blue
 62
256
370
-1
 48
1.0
  6
BYLAYER
100
AcDbLine
 10
162.0
 20
26.954473495805459
 30
0.0
 11
162.0
 21
33.954473495805459
 31
0.0
  0
MTEXT
  5
90
100
AcDbEntity
  8
blue
 62
256
370
-1
 48
1.0
  6
BYLAYER
100
AcDbMText
 10
165.4175428183302188
 20
32.8559033254542143
 30
0.0
 40
0.984252
 41
0.0
 71
1
 72
1
  1
\fLiberation Sans|b0|i0|c0|p0;\H2;\U+041a\U+0430\U+0440\U+043c\U+0430\U+043d \U+0434\U+043b\U+044f \U+0440\U+0435\U+0437\U+0438\U+043d\U+043a\U+0438\P2\U+0448\U+0442
  7
textstyle3
 50
0.0
 73
2
 44
1.0
  0
DIMENSION
  5
91
100
AcDbEntity
  8
dim
 62
256
370
-1
 48
1.0
  6
BYLAYER
100
AcDbDimension
 10
162.0
 20
22.3436884106297065
 30
0.0
 11
178.0
 21
24.2186884106297065
 31
0.0
 70
0
 71
8
 72
2
 74
0
 75
0
 41
1.0
 42
0.0
  1

  3
Standard
100
AcDbAlignedDimension
 13
162.0
 23
26.9544734958055017
 33
0.0
 14
194.0
 24
26.9544734958048018
 34
0.0
 50
0.0
100
AcDbRotatedDimension
1001
ACAD
1000
DSTYLE
1002
{
1070
144
1040
1.0
1070
40
1040
1.0
1002
}
  0
DIMENSION
  5
92
100
AcDbEntity
  8
dim
 62
256
370
-1
 48
1.0
  6
BYLAYER
100
AcDbDimension
 10
199.9775428183301926
 20
33.9544734958055585
 30
0.0
 11
198.1025428183301926
 21
30.454473495805253
 31
0.0
 70
0
 71
8
 72
2
 74
0
 75
0
 41
1.0
 42
0.0
  1

  3
Standard
100
AcDbAlignedDimension
 13
194.0
 23
33.9544734958057006
 33
0.0
 14
194.0
 24
26.9544734958048018
 34
0.0
 50
90.0
100
AcDbRotatedDimension
1001
ACAD
1000
DSTYLE
1002
{
1070
144
1040
1.0
1070
40
1040
1.0
1002
}
  0
LINE
  5
93
100
AcDbEntity
  8
blue--
 62
256
370
-1
 48
1.0
  6
BYLAYER
100
AcDbLine
 10
37.5
 20
245.0
 30
0.0
 11
122.5
 21
245.0
 31
0.0
  0
LINE
  5
94
100
AcDbEntity
  8
blue--
 62
256
370
-1
 48
1.0
  6
BYLAYER
100
AcDbLine
 10
37.5
 20
240.0
 30
0.0
 11
122.5
 21
240.0
 31
0.0
  0
LINE
  5
95
100
AcDbEntity
  8
blue--
 62
256
370
-1
 48
1.0
  6
BYLAYER
100
AcDbLine
 10
62.5
 20
160.0
 30
0.0
 11
62.4999999999999929
 21
270.0
 31
0.0
  0
LINE
  5
96
100
AcDbEntity
  8
blue--
 62
256
370
-1
 48
1.0
  6
BYLAYER
100
AcDbLine
 10
97.5
 20
270.0
 30
0.0
 11
97.5
 21
160.0
 31
0.0
  0
LINE
  5
97
100
AcDbEntity
  8
blue
 62
256
370
-1
 48
1.0
  6
BYLAYER
100
AcDbLine
 10
42.5
 20
160.0
 30
0.0
 11
117.5
 21
160.0
 31
0.0
  0
LINE
  5
98
100
AcDbEntity
  8
blue
 62
256
370
-1
 48
1.0
  6
BYLAYER
100
AcDbLine
 10
122.5
 20
165.0
 30
0.0
 11
122.5
 21
270.0
 31
0.0
  0
LINE
  5
99
100
AcDbEntity
  8
blue
 62
256
370
-1
 48
1.0
  6
BYLAYER
100
AcDbLine
 10
122.5
 20
270.0
 30
0.0
 11
37.5
 21
270.0
 31
0.0
  0
LINE
  5
9A
100
AcDbEntity
  8
blue
 62
256
370
-1
 48
1.0
  6
BYLAYER
100
AcDbLine
 10
37.5
 20
270.0
 30
0.0
 11
37.5
 21
165.0
 31
0.0
  0
ARC
  5
9B
100
AcDbEntity
  8
blue
 62
256
370
-1
 48
1.0
  6
BYLAYER
100
AcDbCircle
 10
42.5
 20
165.0
 30
0.0
 40
5.0
100
AcDbArc
 50
180.0
 51
270.0
  0
ARC
  5
9C
100
AcDbEntity
  8
blue
 62
256
370
-1
 48
1.0
  6
BYLAYER
100
AcDbCircle
 10
117.5
 20
165.0
 30
0.0
 40
5.0
100
AcDbArc
 50
270.0
 51
0.0
  0
DIMENSION
  5
9D
100
AcDbEntity
  8
dim
 62
256
370
-1
 48
1.0
  6
BYLAYER
100
AcDbDimension
 10
27.0925542222220805
 20
270.0
 30
0.0
 11
25.2175542222220805
 21
215.0
 31
0.0
 70
0
 71
8
 72
2
 74
0
 75
0
 41
1.0
 42
0.0
  1
110+4
  3
Standard
100
AcDbAlignedDimension
 13
37.5000000000000213
 23
270.0000000000000568
 33
0.0
 14
42.5000000000000142
 24
159.9999999999999716
 34
0.0
 50
90.0
100
AcDbRotatedDimension
1001
ACAD
1000
DSTYLE
1002
{
1070
144
1040
1.0
1070
40
1040
1.0
1002
}
  0
DIMENSION
  5
9E
100
AcDbEntity
  8
dim
 62
256
370
-1
 48
1.0
  6
BYLAYER
100
AcDbDimension
 10
37.4999999999999858
 20
278.1751838518519548
 30
0.0
 11
50.0
 21
280.0501838518519548
 31
0.0
 70
0
 71
8
 72
2
 74
0
 75
0
 41
1.0
 42
0.0
  1

  3
Standard
100
AcDbAlignedDimension
 13
37.5000000000000213
 23
270.0000000000000568
 33
0.0
 14
62.4999999999999716
 24
270.0
 34
0.0
 50
0.0
100
AcDbRotatedDimension
1001
ACAD
1000
DSTYLE
1002
{
1070
144
1040
1.0
1070
40
1040
1.0
1002
}
  0
DIMENSION
  5
9F
100
AcDbEntity
  8
dim
 62
256
370
-1
 48
1.0
  6
BYLAYER
100
AcDbDimension
 10
62.5000000000000284
 20
278.1751838518519548
 30
0.0
 11
79.9999999999999858
 21
280.0501838518519548
 31
0.0
 70
0
 71
8
 72
2
 74
0
 75
0
 41
1.0
 42
0.0
  1

  3
Standard
100
AcDbAlignedDimension
 13
62.4999999999999716
 23
270.0
 33
0.0
 14
97.5
 24
270.0000000000000568
 34
0.0
 50
0.0
100
AcDbRotatedDimension
1001
ACAD
1000
DSTYLE
1002
{
1070
144
1040
1.0
1070
40
1040
1.0
1002
}
  0
DIMENSION
  5
A0
100
AcDbEntity
  8
dim
 62
256
370
-1
 48
1.0
  6
BYLAYER
100
AcDbDimension
 10
97.5000000000000284
 20
278.175183851851898
 30
0.0
 11
109.9999999999999716
 21
280.050183851851898
 31
0.0
 70
0
 71
8
 72
2
 74
0
 75
0
 41
1.0
 42
0.0
  1

  3
Standard
100
AcDbAlignedDimension
 13
97.5
 23
270.0000000000000568
 33
0.0
 14
122.4999999999999574
 24
270.0
 34
0.0
 50
0.0
100
AcDbRotatedDimension
1001
ACAD
1000
DSTYLE
1002
{
1070
144
1040
1.0
1070
40
1040
1.0
1002
}
  0
LINE
  5
A1
100
AcDbEntity
  8
blue-
 62
256
370
-1
 48
1.0
  6
BYLAYER
100
AcDbLine
 10
37.5
 20
268.0
 30
0.0
 11
122.5
 21
268.0
 31
0.0
  0
DIMENSION
  5
A2
100
AcDbEntity
  8
dim
 62
256
370
-1
 48
1.0
  6
BYLAYER
100
AcDbDimension
 10
37.5
 20
285.0000000000000568
 30
0.0
 11
79.9999999999999858
 21
286.8750000000000568
 31
0.0
 70
0
 71
8
 72
2
 74
0
 75
0
 41
1.0
 42
0.0
  1
85+2
  3
Standard
100
AcDbAlignedDimension
 13
37.5000000000000213
 23
270.0000000000000568
 33
0.0
 14
122.4999999999999574
 24
270.0
 34
0.0
 50
0.0
100
AcDbRotatedDimension
1001
ACAD
1000
DSTYLE
1002
{
1070
144
1040
1.0
1070
40
1040
1.0
1002
}
  0
LINE
  5
A3
100
AcDbEntity
  8
blue--
 62
256
370
-1
 48
1.0
  6
BYLAYER
100
AcDbLine
 10
69.5
 20
160.0
 30
0.0
 11
69.5
 21
233.0
 31
0.0
  0
LINE
  5
A4
100
AcDbEntity
  8
blue--
 62
256
370
-1
 48
1.0
  6
BYLAYER
100
AcDbLine
 10
93.0
 20
160.0
 30
0.0
 11
93.0
 21
233.0
 31
0.0
  0
LINE
  5
A5
100
AcDbEntity
  8
blue--
 62
256
370
-1
 48
1.0
  6
BYLAYER
100
AcDbLine
 10
67.0
 20
160.0
 30
0.0
 11
67.0
 21
233.0
 31
0.0
  0
LINE
  5
A6
100
AcDbEntity
  8
blue--
 62
256
370
-1
 48
1.0
  6
BYLAYER
100
AcDbLine
 10
90.5
 20
160.0
 30
0.0
 11
90.5
 21
233.0
 31
0.0
  0
LINE
  5
A7
100
AcDbEntity
  8
blue--
 62
256
370
-1
 48
1.0
  6
BYLAYER
100
AcDbLine
 10
37.5
 20
175.0
 30
0.0
 11
62.5
 21
180.0
 31
0.0
  0
LINE
  5
A8
100
AcDbEntity
  8
blue--
 62
256
370
-1
 48
1.0
  6
BYLAYER
100
AcDbLine
 10
62.5
 20
180.0
 30
0.0
 11
97.5
 21
180.0
 31
0.0
  0
LINE
  5
A9
100
AcDbEntity
  8
blue--
 62
256
370
-1
 48
1.0
  6
BYLAYER
100
AcDbLine
 10
97.5
 20
180.0
 30
0.0
 11
122.5
 21
175.0
 31
0.0
  0
LINE
  5
AA
100
AcDbEntity
  8
yellow--
 62
256
370
-1
 48
1.0
  6
BYLAYER
100
AcDbLine
 10
60.0
 20
150.0
 30
0.0
 11
60.0
 21
130.0
 31
0.0
  0
LINE
  5
AB
100
AcDbEntity
  8
yellow--
 62
256
370
-1
 48
1.0
  6
BYLAYER
100
AcDbLine
 10
100.0
 20
150.0
 30
0.0
 11
100.0
 21
130.0
 31
0.0
  0
LINE
  5
AC
100
AcDbEntity
  8
yellow
 62
256
370
-1
 48
1.0
  6
BYLAYER
100
AcDbLine
 10
60.0
 20
150.0
 30
0.0
 11
30.0
 21
145.0
 31
0.0
  0
LINE
  5
AD
100
AcDbEntity
  8
yellow
 62
256
370
-1
 48
1.0
  6
BYLAYER
100
AcDbLine
 10
30.0
 20
145.0
 30
0.0
 11
30.0
 21
135.0
 31
0.0
  0
LINE
  5
AE
100
AcDbEntity
  8
yellow
 62
256
370
-1
 48
1.0
  6
BYLAYER
100
AcDbLine
 10
35.0
 20
130.0
 30
0.0
 11
125.0
 21
130.0
 31
0.0
  0
LINE
  5
AF
100
AcDbEntity
  8
yellow
 62
256
370
-1
 48
1.0
  6
BYLAYER
100
AcDbLine
 10
130.0
 20
135.0
 30
0.0
 11
130.0
 21
145.0
 31
0.0
  0
LINE
  5
B0
100
AcDbEntity
  8
yellow
 62
256
370
-1
 48
1.0
  6
BYLAYER
100
AcDbLine
 10
130.0
 20
145.0
 30
0.0
 11
100.0
 21
150.0
 31
0.0
  0
LINE
  5
B1
100
AcDbEntity
  8
yellow
 62
256
370
-1
 48
1.0
  6
BYLAYER
100
AcDbLine
 10
100.0
 20
150.0
 30
0.0
 11
60.0
 21
150.0
 31
0.0
  0
LINE
  5
B2
100
AcDbEntity
  8
yellow--
 62
256
370
-1
 48
1.0
  6
BYLAYER
100
AcDbLine
 10
57.0
 20
130.0
 30
0.0
 11
59.0
 21
139.0
 31
0.0
  0
LINE
  5
B3
100
AcDbEntity
  8
yellow--
 62
256
370
-1
 48
1.0
  6
BYLAYER
100
AcDbLine
 10
70.0
 20
130.0
 30
0.0
 11
68.0
 21
139.0
 31
0.0
  0
LINE
  5
B4
100
AcDbEntity
  8
yellow--
 62
256
370
-1
 48
1.0
  6
BYLAYER
100
AcDbLine
 10
90.0
 20
130.0
 30
0.0
 11
92.0
 21
139.0
 31
0.0
  0
LINE
  5
B5
100
AcDbEntity
  8
yellow--
 62
256
370
-1
 48
1.0
  6
BYLAYER
100
AcDbLine
 10
103.0
 20
130.0
 30
0.0
 11
101.0
 21
139.0
 31
0.0
  0
ARC
  5
B6
100
AcDbEntity
  8
yellow
 62
256
370
-1
 48
1.0
  6
BYLAYER
100
AcDbCircle
 10
35.0
 20
135.0
 30
0.0
 40
5.0
100
AcDbArc
 50
180.0
 51
270.0
  0
ARC
  5
B7
100
AcDbEntity
  8
yellow
 62
256
370
-1
 48
1.0
  6
BYLAYER
100
AcDbCircle
 10
125.0
 20
135.0
 30
0.0
 40
5.0
100
AcDbArc
 50
270.0
 51
0.0
  0
DIMENSION
  5
B8
100
AcDbEntity
  8
dim
 62
256
370
-1
 48
1.0
  6
BYLAYER
100
AcDbDimension
 10
29.9999999999999964
 20
120.0
 30
0.0
 11
80.0
 21
121.875
 31
0.0
 70
0
 71
8
 72
2
 74
0
 75
0
 41
1.0
 42
0.0
  1
100+2
  3
Standard
100
AcDbAlignedDimension
 13
29.9999999999999929
 23
135.0
 33
0.0
 14
130.0
 24
134.9999999999999716
 34
0.0
 50
0.0
100
AcDbRotatedDimension
1001
ACAD
1000
DSTYLE
1002
{
1070
144
1040
1.0
1070
40
1040
1.0
1002
}
  0
DIMENSION
  5
B9
100
AcDbEntity
  8
dim
 62
256
370
-1
 48
1.0
  6
BYLAYER
100
AcDbDimension
 10
20.0
 20
150.0
 30
0.0
 11
18.125
 21
140.0
 31
0.0
 70
0
 71
8
 72
2
 74
0
 75
0
 41
1.0
 42
0.0
  1
20+4
  3
Standard
100
AcDbAlignedDimension
 13
60.0
 23
150.0
 33
0.0
 14
34.9999999999999787
 24
130.0000000000000284
 34
0.0
 50
90.0
100
AcDbRotatedDimension
1001
ACAD
1000
DSTYLE
1002
{
1070
144
1040
1.0
1070
40
1040
1.0
1002
}
  0
LINE
  5
BA
100
AcDbEntity
  8
blue
 62
256
370
-1
 48
1.0
  6
BYLAYER
100
AcDbLine
 10
150.0
 20
275.0
 30
0.0
 11
182.0
 21
275.0
 31
0.0
  0
LINE
  5
BB
100
AcDbEntity
  8
blue
 62
256
370
-1
 48
1.0
  6
BYLAYER
100
AcDbLine
 10
182.0
 20
275.0
 30
0.0
 11
182.0
 21
250.0
 31
0.0
  0
LINE
  5
BC
100
AcDbEntity
  8
blue
 62
256
370
-1
 48
1.0
  6
BYLAYER
100
AcDbLine
 10
150.0
 20
250.0
 30
0.0
 11
150.0
 21
275.0
 31
0.0
  0
LINE
  5
BD
100
AcDbEntity
  8
blue
 62
256
370
-1
 48
1.0
  6
BYLAYER
100
AcDbLine
 10
150.0
 20
250.0
 30
0.0
 11
182.0
 21
250.0
 31
0.0
  0
LINE
  5
BE
100
AcDbEntity
  8
yellow
 62
256
370
-1
 48
1.0
  6
BYLAYER
100
AcDbLine
 10
182.0
 20
248.0
 30
0.0
 11
182.0
 21
160.0
 31
0.0
  0
LINE
  5
BF
100
AcDbEntity
  8
yellow
 62
256
370
-1
 48
1.0
  6
BYLAYER
100
AcDbLine
 10
182.0
 20
160.0
 30
0.0
 11
150.0
 21
160.0
 31
0.0
  0
LINE
  5
C0
100
AcDbEntity
  8
yellow
 62
256
370
-1
 48
1.0
  6
BYLAYER
100
AcDbLine
 10
150.0
 20
160.0
 30
0.0
 11
150.0
 21
248.0
 31
0.0
  0
LINE
  5
C1
100
AcDbEntity
  8
yellow--
 62
256
370
-1
 48
1.0
  6
BYLAYER
100
AcDbLine
 10
151.0
 20
168.0
 30
0.0
 11
182.0
 21
168.0
 31
0.0
  0
DIMENSION
  5
C2
100
AcDbEntity
  8
dim
 62
256
370
-1
 48
1.0
  6
BYLAYER
100
AcDbDimension
 10
150.0000000000000284
 20
279.8901096236627382
 30
0.0
 11
166.0
 21
281.7651096236627382
 31
0.0
 70
0
 71
8
 72
2
 74
0
 75
0
 41
1.0
 42
0.0
  1
32+2
  3
Standard
100
AcDbAlignedDimension
 13
150.0
 23
275.0
 33
0.0
 14
182.0
 24
275.0
 34
0.0
 50
0.0
100
AcDbRotatedDimension
1001
ACAD
1000
DSTYLE
1002
{
1070
144
1040
1.0
1070
40
1040
1.0
1002
}
  0
DIMENSION
  5
C3
100
AcDbEntity
  8
dim
 62
256
370
-1
 48
1.0
  6
BYLAYER
100
AcDbDimension
 10
189.4375
 20
275.0
 30
0.0
 11
187.5625
 21
262.5
 31
0.0
 70
0
 71
8
 72
2
 74
0
 75
0
 41
1.0
 42
0.0
  1
25+4
  3
Standard
100
AcDbAlignedDimension
 13
182.0
 23
275.0
 33
0.0
 14
182.0
 24
250.0
 34
0.0
 50
90.0
100
AcDbRotatedDimension
1001
ACAD
1000
DSTYLE
1002
{
1070
144
1040
1.0
1070
40
1040
1.0
1002
}
  0
DIMENSION
  5
C4
100
AcDbEntity
  8
dim
 62
256
370
-1
 48
1.0
  6
BYLAYER
100
AcDbDimension
 10
194.9999999999999716
 20
248.0000000000000284
 30
0.0
 11
193.1249999999999716
 21
203.9999999999999432
 31
0.0
 70
0
 71
8
 72
2
 74
0
 75
0
 41
1.0
 42
0.0
  1
88+2
  3
Standard
100
AcDbAlignedDimension
 13
182.0
 23
248.0000000000000284
 33
0.0
 14
182.0
 24
159.9999999999998295
 34
0.0
 50
90.0
100
AcDbRotatedDimension
1001
ACAD
1000
DSTYLE
1002
{
1070
144
1040
1.0
1070
40
1040
1.0
1002
}
  0
LINE
  5
C5
100
AcDbEntity
  8
yellow
 62
256
370
-1
 48
1.0
  6
BYLAYER
100
AcDbLine
 10
150.0
 20
155.0
 30
0.0
 11
182.0
 21
155.0
 31
0.0
  0
LINE
  5
C6
100
AcDbEntity
  8
yellow
 62
256
370
-1
 48
1.0
  6
BYLAYER
100
AcDbLine
 10
152.0
 20
135.0
 30
0.0
 11
180.0
 21
135.0
 31
0.0
  0
LINE
  5
C7
100
AcDbEntity
  8
yellow
 62
256
370
-1
 48
1.0
  6
BYLAYER
100
AcDbLine
 10
150.0
 20
155.0
 30
0.0
 11
147.2108685738942313
 21
145.7028952463141422
 31
0.0
  0
LINE
  5
C8
100
AcDbEntity
  8
yellow
 62
256
370
-1
 48
1.0
  6
BYLAYER
100
AcDbLine
 10
147.0
 20
144.2661558184824173
 30
0.0
 11
147.0
 21
140.0
 31
0.0
  0
LINE
  5
C9
100
AcDbEntity
  8
yellow
 62
256
370
-1
 48
1.0
  6
BYLAYER
100
AcDbLine
 10
182.0
 20
155.0
 30
0.0
 11
184.7891314261057403
 21
145.7028952463141707
 31
0.0
  0
LINE
  5
CA
100
AcDbEntity
  8
yellow
 62
256
370
-1
 48
1.0
  6
BYLAYER
100
AcDbLine
 10
185.0
 20
144.2661558184824457
 30
0.0
 11
185.0
 21
140.0
 31
0.0
  0
MTEXT
  5
CB
100
AcDbEntity
  8
dim
 62
256
370
-1
 48
1.0
  6
BYLAYER
100
AcDbMText
 10
113.3382141674156571
 20
150.269126287545788
 30
0.0
 40
0.984252
 41
0.0
 71
1
 72
1
  1
\fLiberation Sans|b0|i0|c0|p0;\H2;\U+0440\U+0435\U+0437\U+0438\U+043d\U+043a\U+0430
  7
textstyle9
 50
0.0
 73
2
 44
1.0
  0
MTEXT
  5
CC
100
AcDbEntity
  8
dim
 62
256
370
-1
 48
1.0
  6
BYLAYER
100
AcDbMText
 10
75.4662141674156857
 20
152.7171262875457671
 30
0.0
 40
0.984252
 41
0.0
 71
1
 72
1
  1
\fLiberation Sans|b0|i0|c0|p0;\H2;\U+0440\U+0435\U+0437\U+0438\U+043d\U+043a\U+0430
  7
textstyle10
 50
0.0
 73
2
 44
1.0
  0
MTEXT
  5
CD
100
AcDbEntity
  8
dim
 62
256
370
-1
 48
1.0
  6
BYLAYER
100
AcDbMText
 10
31.6852808340823628
 20
148.9527262875458007
 30
0.0
 40
0.984252
 41
0.0
 71
1
 72
1
  1
\fLiberation Sans|b0|i0|c0|p0;\H2;\U+0440\U+0435\U+0437\U+0438\U+043d\U+043a\U+0430
  7
textstyle11
 50
0.0
 73
2
 44
1.0
  0
LINE
  5
CE
100
AcDbEntity
  8
yellow--
 62
256
370
-1
 48
1.0
  6
BYLAYER
100
AcDbLine
 10
67.0
 20
130.0
 30
0.0
 11
67.0
 21
150.0
 31
0.0
  0
LINE
  5
CF
100
AcDbEntity
  8
yellow--
 62
256
370
-1
 48
1.0
  6
BYLAYER
100
AcDbLine
 10
93.0
 20
130.0
 30
0.0
 11
93.0
 21
150.0
 31
0.0
  0
LINE
  5
D0
100
AcDbEntity
  8
yellow--
 62
256
370
-1
 48
1.0
  6
BYLAYER
100
AcDbLine
 10
150.0
 20
236.0
 30
0.0
 11
182.0
 21
236.0
 31
0.0
  0
LINE
  5
D1
100
AcDbEntity
  8
yellow--
 62
256
370
-1
 48
1.0
  6
BYLAYER
100
AcDbLine
 10
182.0
 20
233.5
 30
0.0
 11
150.0
 21
233.5
 31
0.0
  0
LINE
  5
D2
100
AcDbEntity
  8
yellow--
 62
256
370
-1
 48
1.0
  6
BYLAYER
100
AcDbLine
 10
150.0
 20
234.0
 30
0.0
 11
163.0
 21
234.0
 31
0.0
  0
LINE
  5
D3
100
AcDbEntity
  8
yellow--
 62
256
370
-1
 48
1.0
  6
BYLAYER
100
AcDbLine
 10
182.0
 20
234.0
 30
0.0
 11
169.0
 21
234.0
 31
0.0
  0
LINE
  5
D4
100
AcDbEntity
  8
yellow--
 62
256
370
-1
 48
1.0
  6
BYLAYER
100
AcDbLine
 10
163.0
 20
234.0
 30
0.0
 11
163.0
 21
204.0
 31
0.0
  0
LINE
  5
D5
100
AcDbEntity
  8
yellow--
 62
256
370
-1
 48
1.0
  6
BYLAYER
100
AcDbLine
 10
169.0
 20
234.0
 30
0.0
 11
169.0
 21
204.0
 31
0.0
  0
LINE
  5
D6
100
AcDbEntity
  8
yellow--
 62
256
370
-1
 48
1.0
  6
BYLAYER
100
AcDbLine
 10
163.0
 20
204.0
 30
0.0
 11
150.0
 21
204.0
 31
0.0
  0
LINE
  5
D7
100
AcDbEntity
  8
yellow--
 62
256
370
-1
 48
1.0
  6
BYLAYER
100
AcDbLine
 10
169.0
 20
204.0
 30
0.0
 11
182.0
 21
204.0
 31
0.0
  0
LINE
  5
D8
100
AcDbEntity
  8
yellow--
 62
256
370
-1
 48
1.0
  6
BYLAYER
100
AcDbLine
 10
163.0
 20
204.0
 30
0.0
 11
169.0
 21
204.0
 31
0.0
  0
LINE
  5
D9
100
AcDbEntity
  8
yellow--
 62
256
370
-1
 48
1.0
  6
BYLAYER
100
AcDbLine
 10
182.0
 20
206.5
 30
0.0
 11
150.0
 21
206.5
 31
0.0
  0
LINE
  5
DA
100
AcDbEntity
  8
yellow--
 62
256
370
-1
 48
1.0
  6
BYLAYER
100
AcDbLine
 10
150.0
 20
188.0
 30
0.0
 11
182.0
 21
188.0
 31
0.0
  0
LINE
  5
DB
100
AcDbEntity
  8
yellow--
 62
256
370
-1
 48
1.0
  6
BYLAYER
100
AcDbLine
 10
182.0
 20
190.5
 30
0.0
 11
150.0
 21
190.5
 31
0.0
  0
LINE
  5
DC
100
AcDbEntity
  8
yellow--
 62
256
370
-1
 48
1.0
  6
BYLAYER
100
AcDbLine
 10
150.0
 20
213.0
 30
0.0
 11
182.0
 21
213.0
 31
0.0
  0
LINE
  5
DD
100
AcDbEntity
  8
yellow--
 62
256
370
-1
 48
1.0
  6
BYLAYER
100
AcDbLine
 10
166.0
 20
184.0
 30
0.0
 11
166.0
 21
163.0
 31
0.0
  0
LINE
  5
DE
100
AcDbEntity
  8
yellow--
 62
256
370
-1
 48
1.0
  6
BYLAYER
100
AcDbLine
 10
156.0
 20
183.0
 30
0.0
 11
176.0
 21
183.0
 31
0.0
  0
LINE
  5
DF
100
AcDbEntity
  8
yellow--
 62
256
370
-1
 48
1.0
  6
BYLAYER
100
AcDbLine
 10
154.0
 20
168.0
 30
0.0
 11
156.0
 21
183.0
 31
0.0
  0
LINE
  5
E0
100
AcDbEntity
  8
yellow--
 62
256
370
-1
 48
1.0
  6
BYLAYER
100
AcDbLine
 10
176.0
 20
183.0
 30
0.0
 11
178.0
 21
168.0
 31
0.0
  0
LINE
  5
E1
100
AcDbEntity
  8
blue--
 62
256
370
-1
 48
1.0
  6
BYLAYER
100
AcDbLine
 10
97.5
 20
185.0
 30
0.0
 11
62.5
 21
185.0
 31
0.0
  0
LINE
  5
E2
100
AcDbEntity
  8
blue--
 62
256
370
-1
 48
1.0
  6
BYLAYER
100
AcDbLine
 10
62.6000000000000014
 20
187.5
 30
0.0
 11
97.5
 21
187.5
 31
0.0
  0
LINE
  5
E3
100
AcDbEntity
  8
blue--
 62
256
370
-1
 48
1.0
  6
BYLAYER
100
AcDbLine
 10
122.5
 20
233.0
 30
0.0
 11
37.5
 21
233.0
 31
0.0
  0
DIMENSION
  5
E4
100
AcDbEntity
  8
dim
 62
256
370
-1
 48
1.0
  6
BYLAYER
100
AcDbDimension
 10
69.5000000000000142
 20
165.414257794795958
 30
0.0
 11
79.9999999999999858
 21
167.289257794795958
 31
0.0
 70
0
 71
8
 72
2
 74
0
 75
0
 41
1.0
 42
0.0
  1
20-21
  3
Standard
100
AcDbAlignedDimension
 13
69.5
 23
160.0
 33
0.0
 14
90.4999999999999716
 24
160.0
 34
0.0
 50
0.0
100
AcDbRotatedDimension
1001
ACAD
1000
DSTYLE
1002
{
1070
144
1040
1.0
1070
40
1040
1.0
1002
}
  0
ARC
  5
E5
100
AcDbEntity
  8
yellow
 62
256
370
-1
 48
1.0
  6
BYLAYER
100
AcDbCircle
 10
152.0
 20
140.0
 30
0.0
 40
5.0
100
AcDbArc
 50
180.0
 51
270.0
  0
ARC
  5
E6
100
AcDbEntity
  8
yellow
 62
256
370
-1
 48
1.0
  6
BYLAYER
100
AcDbCircle
 10
180.0
 20
140.0
 30
0.0
 40
5.0
100
AcDbArc
 50
270.0
 51
0.0
  0
ARC
  5
E7
100
AcDbEntity
  8
yellow
 62
256
370
-1
 48
1.0
  6
BYLAYER
100
AcDbCircle
 10
180.0
 20
144.2661558184824457
 30
0.0
 40
5.0
100
AcDbArc
 50
0.0
 51
16.6992442339936389
  0
ARC
  5
E8
100
AcDbEntity
  8
yellow
 62
256
370
-1
 48
1.0
  6
BYLAYER
100
AcDbCircle
 10
152.0
 20
144.2661558184824173
 30
0.0
 40
5.0
100
AcDbArc
 50
163.3007557660064322
 51
180.0
  0
LINE
  5
E9
100
AcDbEntity
  8
yellow--
 62
256
370
-1
 48
1.0
  6
BYLAYER
100
AcDbLine
 10
166.0
 20
134.0
 30
0.0
 11
166.0
 21
157.0
 31
0.0
  0
LINE
  5
EA
100
AcDbEntity
  8
yellow--
 62
256
370
-1
 48
1.0
  6
BYLAYER
100
AcDbLine
 10
154.0
 20
135.0
 30
0.0
 11
150.0
 21
155.0
 31
0.0
  0
LINE
  5
EB
100
AcDbEntity
  8
yellow--
 62
256
370
-1
 48
1.0
  6
BYLAYER
100
AcDbLine
 10
182.0
 20
155.0
 30
0.0
 11
178.0
 21
135.0
 31
0.0
  0
DIMENSION
  5
EC
100
AcDbEntity
  8
dim
 62
256
370
-1
 48
1.0
  6
BYLAYER
100
AcDbDimension
 10
187.9999999999999716
 20
248.0000000000000568
 30
0.0
 11
186.1249999999999716
 21
242.0
 31
0.0
 70
0
 71
8
 72
2
 74
0
 75
0
 41
1.0
 42
0.0
  1

  3
Standard
100
AcDbAlignedDimension
 13
182.0
 23
248.0000000000000284
 33
0.0
 14
182.0
 24
235.9999999999999432
 34
0.0
 50
90.0
100
AcDbRotatedDimension
1001
ACAD
1000
DSTYLE
1002
{
1070
144
1040
1.0
1070
40
1040
1.0
1002
}
  0
DIMENSION
  5
ED
100
AcDbEntity
  8
dim
 62
256
370
-1
 48
1.0
  6
BYLAYER
100
AcDbDimension
 10
188.0
 20
236.0000000000000853
 30
0.0
 11
186.125
 21
224.4999999999999716
 31
0.0
 70
0
 71
8
 72
2
 74
0
 75
0
 41
1.0
 42
0.0
  1

  3
Standard
100
AcDbAlignedDimension
 13
182.0
 23
235.9999999999999432
 33
0.0
 14
182.0
 24
213.0
 34
0.0
 50
90.0
100
AcDbRotatedDimension
1001
ACAD
1000
DSTYLE
1002
{
1070
144
1040
1.0
1070
40
1040
1.0
1002
}
  0
DIMENSION
  5
EE
100
AcDbEntity
  8
dim
 62
256
370
-1
 48
1.0
  6
BYLAYER
100
AcDbDimension
 10
188.0
 20
213.0
 30
0.0
 11
186.125
 21
201.75
 31
0.0
 70
0
 71
8
 72
2
 74
0
 75
0
 41
1.0
 42
0.0
  1

  3
Standard
100
AcDbAlignedDimension
 13
182.0
 23
213.0
 33
0.0
 14
182.0
 24
190.5
 34
0.0
 50
90.0
100
AcDbRotatedDimension
1001
ACAD
1000
DSTYLE
1002
{
1070
144
1040
1.0
1070
40
1040
1.0
1002
}
  0
LINE
  5
EF
100
AcDbEntity
  8
yellow--
 62
256
370
-1
 48
1.0
  6
BYLAYER
100
AcDbLine
 10
182.0
 20
210.5
 30
0.0
 11
150.0
 21
210.5
 31
0.0
  0
LINE
  5
F0
100
AcDbEntity
  8
yellow
 62
256
370
-1
 48
1.0
  6
BYLAYER
100
AcDbLine
 10
150.0
 20
248.0
 30
0.0
 11
182.0
 21
248.0
 31
0.0
  0
MTEXT
  5
F1
100
AcDbEntity
  8
yellow
 62
256
370
-1
 48
1.0
  6
BYLAYER
100
AcDbMText
 10
75.0701998849968817
 20
144.4072708963155662
 30
0.0
 40
0.984252
 41
0.0
 71
1
 72
1
  1
\fLiberation Sans|b0|i0|c0|p0;\H2;\U+041a\U+0430\U+0440\U+043c\U+0430\U+043d\U+044b
  7
textstyle12
 50
0.0
 73
2
 44
1.0
  0
MTEXT
  5
F2
100
AcDbEntity
  8
blue
 62
256
370
-1
 48
1.0
  6
BYLAYER
100
AcDbMText
 10
72.5
 20
230.0
 30
0.0
 40
0.984252
 41
0.0
 71
1
 72
1
  1
\fLiberation Sans|b0|i0|c0|p0;\H2;\U+0417\U+0430\U+0434 \U+0438 \U+0431\U+043e\U+043a\U+0430
  7
textstyle13
 50
0.0
 73
2
 44
1.0
  0
MTEXT
  5
F3
100
AcDbEntity
  8
blue
 62
256
370
-1
 48
1.0
  6
BYLAYER
100
AcDbMText
 10
159.4709678849968668
 20
270.0637060963155136
 30
0.0
 40
0.984252
 41
0.0
 71
1
 72
1
  1
\fLiberation Sans|b0|i0|c0|p0;\H2;\U+0412\U+0435\U+0440\U+0445 \U+0441\U+043f\U+0438\U+043d\U+044b
  7
textstyle14
 50
0.0
 73
2
 44
1.0
  0
MTEXT
  5
F4
100
AcDbEntity
  8
yellow
 62
256
370
-1
 48
1.0
  6
BYLAYER
100
AcDbMText
 10
163.6513454849969094
 20
243.8711428963154901
 30
0.0
 40
0.984252
 41
0.0
 71
1
 72
1
  1
\fLiberation Sans|b0|i0|c0|p0;\H2;\U+0421\U+043f\U+0438\U+043d\U+0430
  7
textstyle15
 50
0.0
 73
2
 44
1.0
  0
MTEXT
  5
F5
100
AcDbEntity
  8
yellow
 62
256
370
-1
 48
1.0
  6
BYLAYER
100
AcDbMText
 10
154.4289198849968727
 20
151.3617028963155065
 30
0.0
 40
0.984252
 41
0.0
 71
1
 72
1
  1
\fLiberation Sans|b0|i0|c0|p0;\H2;\U+0414\U+043d\U+043e (\U+0434\U+0432\U+043e\U+0439\U+043d\U+043e\U+0435)
  7
textstyle16
 50
0.0
 73
2
 44
1.0
  0
MTEXT
  5
F6
100
AcDbEntity
  8
0
 62
256
370
-1
 48
1.0
  6
BYLAYER
100
AcDbMText
 10
225.0683614020526306
 20
287.5418900340876007
 30
0.0
 40
0.984252
 41
0.0
 71
1
 72
1
  3
\fLiberation Sans|b0|i0|c0|p0;\H2;- \U+0412\U+044b\U+043a\U+0440\U+043e\U+0438\U+043b \U+0437\U+0430\U+0434 \U+0438 \U+0431\U+043e\U+043a\U+0430, \U+043a\U+0430\U+0440\U+043c\U+0430\U+043d\U+044b, \U+0441\U+043f\U+0438\U+043d\U+0443 \U+0438 \U+0434\U
  3
+043d\U+043e.\P- \U+041f\U+0440\U+0438\U+0448\U+0438\U+043b \U+0440\U+0435\U+0437\U+0438\U+043d\U+043a\U+0443 \U+043a \U+043a\U+0430\U+0440\U+043c\U+0430\U+043d\U+0430\U+043c, \U+043f\U+0440\U+0438\U+0448\U+0438\U+043b \U+043a\U+0430\U+0440\U+043c\U+
  3
0430\U+043d\U+044b\P  \U+043a \U+0437\U+0430\U+0434\U+043d\U+0435\U+0439 \U+0447\U+0430\U+0441\U+0442\U+0438.\P- \U+0421\U+0448\U+0438\U+043b \U+0441\U+043f\U+0438\U+043d\U+0443 \U+0438 \U+0434\U+043d\U+043e \U+0438\U+0437 \U+0442\U+0440\U+0435\U+044
  3
5 \U+0447\U+0430\U+0441\U+0442\U+0435\U+0439.\P- \U+041f\U+0440\U+0438\U+0448\U+0438\U+043b \U+0441\U+043f\U+0438\U+043d\U+0443 \U+0438 \U+0434\U+043d\U+043e \U+043a \U+0437\U+0430\U+0434\U+043d\U+0435\U+0439 \U+0447\U+0430\U+0441\U+0442\U+0438.\P  \
  3
U+041f\U+043e\U+043b\U+0443\U+0447\U+0438\U+043b\U+0441\U+044f \U+043c\U+0435\U+0448\U+043e\U+043a.\P- \U+041a \U+0437\U+0430\U+0434\U+043d\U+0435\U+0439 \U+0447\U+0430\U+0441\U+0442\U+0438 \U+043f\U+0438\U+0448\U+0438\U+043b \U+0434\U+0432\U+0435 \U
  3
+0433\U+043e\U+0440\U+0438\U+0437\U+043e\U+043d\U+0442\U+0430\U+043b\U+044c\U+043d\U+044b\U+0435\P  \U+0441\U+0442\U+0440\U+043e\U+043f\U+044b \U+0441 \U+0445\U+0432\U+043e\U+0441\U+0442\U+0430\U+043c\U+0438 \U+0434\U+043b\U+044f \U+0431\U+043e\U+043
  3
a\U+043e\U+0432\U+044b\U+0445 \U+0443\U+0442\U+044f\U+0436\U+0435\U+043a.\P  \U+041f\U+0440\U+0438\U+0448\U+0438\U+0432\U+0430\U+043b \U+0442\U+043e\U+043b\U+044c\U+043a\U+043e \U+0432 \U+043c\U+0435\U+0441\U+0442\U+0435 \U+043f\U+0435\U+0440\U+0435\
  3
U+0441\U+0435\U+0447\U+0435\U+043d\U+0438\U+044f \U+0441\P  \U+0432\U+0435\U+0440\U+0442\U+0438\U+043a\U+0430\U+043b\U+044c\U+043d\U+044b\U+043c\U+0438 \U+0441\U+0442\U+0440\U+043e\U+043f\U+0430\U+043c\U+0438, \U+0442\U+0443\U+0434\U+0430 \U+0436\U+0
  3
435 \U+043f\U+043e\U+0434\U+043a\U+043b\U+0430\U+0434\U+044b\U+0432\U+0430\U+043b\P  \U+043f\U+043b\U+043e\U+0442\U+043d\U+0443\U+044e \U+0442\U+043a\U+0430\U+043d\U+044c. \U+0417\U+0430\U+043e\U+0434\U+043d\U+043e \U+043f\U+043e\U+043b\U+0443\U+0447
  3
\U+0438\U+043b\U+0438\U+0441\U+044c \U+0434\U+0432\U+0435 \U+0440\U+0443\U+0447\U+043a\U+0438.\P- \U+041f\U+0440\U+0438\U+0448\U+0438\U+043b \U+0432\U+0435\U+0440\U+0442\U+0438\U+043a\U+0430\U+043b\U+044c\U+043d\U+044b\U+0435 \U+0441\U+0442\U+0440\U+
  3
043e\U+043f\U+044b \U+043f\U+043e \U+0437\U+0430\U+0434\U+043d\U+0435\U+0439 \U+0447\U+0430\U+0441\U+0442\U+0438,\P  \U+043e\U+0442 \U+0432\U+0435\U+0440\U+0445\U+043d\U+0435\U+0439 \U+0443\U+0442\U+044f\U+0436\U+043a\U+0438, \U+0447\U+0435\U+0440\U+
  3
0435\U+0437 \U+0434\U+043d\U+043e \U+0438 \U+043d\U+0430 \U+043b\U+044f\U+043c\U+043e\U+0447\U+043d\U+044b\U+0435 \U+0445\U+0432\U+043e\U+0441\U+0442\U+044b.\P- \U+041f\U+0440\U+0438\U+0448\U+0438\U+043b \U+0432\U+0435\U+0440\U+0442\U+0438\U+043a\U+0
  3
430\U+043b\U+044c\U+043d\U+044b\U+0435 \U+0441\U+0442\U+0440\U+043e\U+043f\U+044b \U+043f\U+043e \U+0441\U+043f\U+0438\U+043d\U+0435, \U+043e\U+0442 \U+0432\U+0435\U+0440\U+0445\U+043d\U+0435\U+0439\P  \U+0443\U+0442\U+044f\U+0436\U+043a\U+0438 \U+04
  3
34\U+043e \U+0434\U+043d\U+0430. \U+041f\U+043e\U+0434 \U+043d\U+0438\U+0445 \U+043f\U+043e\U+0434\U+043b\U+043e\U+0436\U+0438\U+043b \U+043f\U+0440\U+044f\U+0436\U+043a\U+0438 \U+043d\U+0438\U+0436\U+043d\U+0435\U+0439 \U+0443\U+0442\U+044f\U+0436\U
  3
+043a\U+0438.\P- \U+0421\U+043e\U+0431\U+0440\U+0430\U+043b (\U+043f\U+0430\U+044f\U+043b\U+044c\U+043d\U+0438\U+043a\U+043e\U+043c) \U+043a\U+0440\U+0435\U+043f\U+043b\U+0435\U+043d\U+0438\U+0435 \U+0434\U+043b\U+044f \U+043b\U+044f\U+043c\U+043e\U+
  3
043a + \U+0441\U+043f\U+0438\U+043d\U+043d\U+0430\U+044f \U+0447\U+0430\U+0441\U+0442\U+044c\P  \U+0432\U+0435\U+0440\U+0445\U+043d\U+0435\U+0439 \U+0443\U+0442\U+044f\U+0436\U+043a\U+0438 \U+0441 \U+043f\U+0440\U+044f\U+0436\U+043a\U+0430\U+043c\U+0
  3
438 + \U+0440\U+0443\U+0447\U+043a\U+0430 + \U+043f\U+0440\U+044f\U+0436\U+043a\U+0438 \U+043e\U+0442\U+0442\U+044f\U+0436\U+0435\U+043a \U+043b\U+044f\U+043c\U+043e\U+043a.\P  \U+041f\U+0440\U+0438\U+0448\U+0438\U+043b \U+043d\U+0430 \U+0440\U+044e\
  3
U+043a\U+0437\U+0430\U+043a.\P- \U+0421\U+0448\U+0438\U+043b \U+043a\U+0430\U+0440\U+043c\U+0430\U+043d \U+0434\U+043b\U+044f \U+0432\U+0435\U+0440\U+0435\U+0432\U+043e\U+0447\U+043d\U+043e\U+0439 \U+0443\U+0442\U+044f\U+0436\U+043a\U+0438, \U+043f\U
  3
+0440\U+0438\U+0448\U+0438\U+043b \U+043d\U+0430 \U+0440\U+044e\U+043a\U+0437\U+0430\U+043a.\P  \U+0421\U+0434\U+0435\U+043b\U+0430\U+043b \U+043a\U+0430\U+0440\U+043c\U+0430\U+043d \U+0434\U+043b\U+044f \U+0432\U+0435\U+0440\U+0445\U+043d\U+0435\U+0
  3
439 \U+0443\U+0442\U+044f\U+0436\U+043a\U+0438.\P  \U+041e\U+043a\U+043e\U+043b\U+043e \U+0434\U+044b\U+0440\U+043e\U+043a \U+0441\U+0434\U+0435\U+043b\U+0430\U+043b \U+043f\U+0435\U+0442\U+043b\U+0438 \U+0438\U+0437 \U+0441\U+0442\U+0440\U+043e\U+04
  3
3f\U+044b, \U+0447\U+0442\U+043e\U+0431\U+044b \U+0432\U+0435\U+0440\U+0435\U+0432\U+043a\U+0430\P  \U+043d\U+0435 \U+0440\U+0432\U+0430\U+043b\U+0430 \U+043a\U+0430\U+0440\U+043c\U+0430\U+043d\U+044b.\P- \U+041f\U+0440\U+0438\U+0448\U+0438\U+043b \U
  3
+0441\U+043f\U+0438\U+043d\U+043d\U+044b\U+0435 \U+043f\U+043e\U+0434\U+0443\U+0448\U+043a\U+0438, \U+0432\U+0441\U+0442\U+0430\U+0432\U+0438\U+043b \U+043f\U+0435\U+043d\U+0443\P  (2 \U+0441\U+043b\U+043e\U+044f \U+043f\U+043b\U+043e\U+0442\U+043d\U
  3
+043e\U+0439 \U+0442\U+0440\U+0435\U+0445\U+043c\U+0438\U+043b\U+043b\U+0438\U+043c\U+0435\U+0442\U+0440\U+043e\U+0432\U+043e\U+0439), \U+0437\U+0430\U+0448\U+0438\U+043b.\P- \U+0421\U+043e\U+0431\U+0440\U+0430\U+043b \U+043a\U+043b\U+0430\U+043f\U+0
  3
430\U+043d: \U+0440\U+0435\U+0437\U+0438\U+043d\U+043a\U+0438 \U+0432\U+0448\U+0438\U+043b \U+0432 \U+043a\U+0430\U+0440\U+043c\U+0430\U+043d\U+044b, \U+043a\U+0430\U+0440\U+043c\U+0430\U+043d\U+044b\P  \U+043f\U+0440\U+0438\U+0448\U+0438\U+043b \U+0
  3
43a \U+0431\U+043e\U+043a\U+043e\U+0432\U+0438\U+043d\U+0430\U+043c, \U+0431\U+043e\U+043a\U+043e\U+0432\U+0438\U+043d\U+044b \U+0441\U+0448\U+0438\U+043b \U+0441 \U+0432\U+0435\U+0440\U+0445\U+043e\U+043c.\P- \U+041d\U+0430\U+0448\U+0438\U+043b \U+0
  3
441\U+0442\U+0440\U+043e\U+043f\U+044b \U+0441 \U+043f\U+0440\U+044f\U+0436\U+043a\U+0430\U+043c\U+0438 \U+043d\U+0430 \U+043a\U+043b\U+0430\U+043f\U+0430\U+043d.\P- \U+041f\U+0440\U+0438\U+0448\U+0438\U+043b \U+043a\U+043b\U+0430\U+043f\U+0430\U+043
  3
d \U+043a \U+0440\U+044e\U+043a\U+0437\U+0430\U+043a\U+0443.\P- \U+0421\U+043e\U+0431\U+0440\U+0430\U+043b \U+043f\U+043e\U+044f\U+0441: \U+043e\U+0434\U+043d\U+0430 \U+0432\U+043d\U+0443\U+0442\U+0440\U+0435\U+043d\U+043d\U+044f\U+044f+2 \U+0432\U+0
  3
43d\U+0435\U+0448\U+043d\U+0438\U+0435 \U+0434\U+0435\U+0442\U+0430\U+043b\U+0438,\P  \U+0441\U+0448\U+0438\U+043b \U+043f\U+043e \U+043a\U+0440\U+0430\U+044f\U+043c, \U+0432\U+044b\U+0432\U+0435\U+0440\U+043d\U+0443\U+043b, \U+043d\U+0430\U+0431\U+0
  3
438\U+043b \U+043f\U+0435\U+043d\U+043e\U+0439, \U+0437\U+0430\U+0448\U+0438\U+043b \U+0438 \U+043f\U+0440\U+0438\U+0448\U+0438\U+043b\P  \U+0441\U+0442\U+0440\U+043e\U+043f\U+0443 \U+0441 \U+043f\U+0440\U+044f\U+0436\U+043a\U+043e\U+0439. \U+041f\U+
  3
0440\U+0438\U+0448\U+0438\U+043b \U+043a \U+0440\U+044e\U+043a\U+0437\U+0430\U+043a\U+0443.\P- \U+041f\U+043e\U+044f\U+0441\U+043d\U+0430\U+044f \U+043f\U+043e\U+0434\U+0443\U+0448\U+043a\U+0430: \U+0441\U+0448\U+0438\U+043b \U+0438\U+0437 \U+0434\U+
  3
0432\U+0443\U+0445 \U+0434\U+0435\U+0442\U+0430\U+043b\U+0435\U+0439, \U+043d\U+0430\U+0431\U+0438\U+043b \U+043f\U+0435\U+043d\U+043e\U+0439,\P  \U+043f\U+0440\U+0438\U+0448\U+0438\U+043b \U+043a \U+0440\U+044e\U+043a\U+0437\U+0430\U+043a\U+0443.\P-
  1
 \U+0412\U+0435\U+0441 \U+0440\U+044e\U+043a\U+0437\U+0430\U+043a\U+0430 \U+0431\U+0435\U+0437 \U+043b\U+044f\U+043c\U+043e\U+043a: 755 \U+0433.\P\P\P
  7
textstyle17
 50
0.0
 73
2
 44
1.0
  0
LINE
  5
F7
100
AcDbEntity
  8
0
 62
256
370
-1
 48
1.0
  6
BYLAYER
100
AcDbLine
 10
124.9999999999999716
 20
97.0
 30
0.0
 11
134.9999999999999716
 21
97.0
 31
0.0
  0
LINE
  5
F8
100
AcDbEntity
  8
0
 62
256
370
-1
 48
1.0
  6
BYLAYER
100
AcDbLine
 10
124.9999999999999147
 20
93.9000000000000057
 30
0.0
 11
134.9999999999999147
 21
93.9000000000000057
 31
0.0
  0
LINE
  5
F9
100
AcDbEntity
  8
0
 62
256
370
-1
 48
1.0
  6
BYLAYER
100
AcDbLine
 10
124.9999999999998579
 20
90.7999999999999972
 30
0.0
 11
134.9999999999998579
 21
90.7999999999999972
 31
0.0
  0
LINE
  5
FA
100
AcDbEntity
  8
0
 62
256
370
-1
 48
1.0
  6
BYLAYER
100
AcDbLine
 10
124.999999999999801
 20
87.7000000000000028
 30
0.0
 11
134.999999999999801
 21
87.7000000000000028
 31
0.0
  0
LINE
  5
FB
100
AcDbEntity
  8
0
 62
256
370
-1
 48
1.0
  6
BYLAYER
100
AcDbLine
 10
124.9999999999997442
 20
84.5999999999999943
 30
0.0
 11
134.9999999999997442
 21
84.5999999999999943
 31
0.0
  0
LINE
  5
FC
100
AcDbEntity
  8
0
 62
256
370
-1
 48
1.0
  6
BYLAYER
100
AcDbLine
 10
124.9999999999996874
 20
81.5
 30
0.0
 11
134.9999999999996874
 21
81.5
 31
0.0
  0
LINE
  5
FD
100
AcDbEntity
  8
0
 62
256
370
-1
 48
1.0
  6
BYLAYER
100
AcDbLine
 10
124.9999999999996305
 20
78.4000000000000057
 30
0.0
 11
134.9999999999996305
 21
78.4000000000000057
 31
0.0
  0
LINE
  5
FE
100
AcDbEntity
  8
0
 62
256
370
-1
 48
1.0
  6
BYLAYER
100
AcDbLine
 10
124.9999999999995737
 20
75.2999999999999972
 30
0.0
 11
134.9999999999995737
 21
75.2999999999999972
 31
0.0
  0
LINE
  5
FF
100
AcDbEntity
  8
0
 62
256
370
-1
 48
1.0
  6
BYLAYER
100
AcDbLine
 10
124.9999999999995168
 20
72.1999999999999886
 30
0.0
 11
134.9999999999995168
 21
72.1999999999999886
 31
0.0
  0
LINE
  5
100
100
AcDbEntity
  8
0
 62
256
370
-1
 48
1.0
  6
BYLAYER
100
AcDbLine
 10
124.99999999999946
 20
69.0999999999999943
 30
0.0
 11
134.99999999999946
 21
69.0999999999999943
 31
0.0
  0
LINE
  5
101
100
AcDbEntity
  8
0
 62
256
370
-1
 48
1.0
  6
BYLAYER
100
AcDbLine
 10
129.9999999999999432
 20
100.0
 30
0.0
 11
150.9999999999999432
 21
100.0
 31
0.0
  0
LINE
  5
102
100
AcDbEntity
  8
0
 62
256
370
-1
 48
1.0
  6
BYLAYER
100
AcDbLine
 10
130.0
 20
100.0
 30
0.0
 11
109.0
 21
99.9999999999999716
 31
0.0
  0
LINE
  5
103
100
AcDbEntity
  8
0
 62
256
370
-1
 48
1.0
  6
BYLAYER
100
AcDbLine
 10
124.9999999999999432
 20
94.5
 30
0.0
 11
134.9999999999999432
 21
94.5
 31
0.0
  0
LINE
  5
104
100
AcDbEntity
  8
0
 62
256
370
-1
 48
1.0
  6
BYLAYER
100
AcDbLine
 10
124.9999999999998863
 20
91.4000000000000057
 30
0.0
 11
134.9999999999998863
 21
91.4000000000000057
 31
0.0
  0
LINE
  5
105
100
AcDbEntity
  8
0
 62
256
370
-1
 48
1.0
  6
BYLAYER
100
AcDbLine
 10
124.9999999999998295
 20
88.2999999999999972
 30
0.0
 11
134.9999999999998295
 21
88.2999999999999972
 31
0.0
  0
LINE
  5
106
100
AcDbEntity
  8
0
 62
256
370
-1
 48
1.0
  6
BYLAYER
100
AcDbLine
 10
124.9999999999997726
 20
85.2000000000000028
 30
0.0
 11
134.9999999999997726
 21
85.2000000000000028
 31
0.0
  0
LINE
  5
107
100
AcDbEntity
  8
0
 62
256
370
-1
 48
1.0
  6
BYLAYER
100
AcDbLine
 10
124.9999999999997158
 20
82.0999999999999943
 30
0.0
 11
134.9999999999997158
 21
82.0999999999999943
 31
0.0
  0
LINE
  5
108
100
AcDbEntity
  8
0
 62
256
370
-1
 48
1.0
  6
BYLAYER
100
AcDbLine
 10
124.9999999999996589
 20
79.0
 30
0.0
 11
134.9999999999996589
 21
79.0
 31
0.0
  0
LINE
  5
109
100
AcDbEntity
  8
0
 62
256
370
-1
 48
1.0
  6
BYLAYER
100
AcDbLine
 10
124.9999999999996021
 20
75.9000000000000057
 30
0.0
 11
134.9999999999996021
 21
75.9000000000000057
 31
0.0
  0
LINE
  5
10A
100
AcDbEntity
  8
0
 62
256
370
-1
 48
1.0
  6
BYLAYER
100
AcDbLine
 10
124.9999999999995453
 20
72.7999999999999972
 30
0.0
 11
134.9999999999995453
 21
72.7999999999999972
 31
0.0
  0
LINE
  5
10B
100
AcDbEntity
  8
0
 62
256
370
-1
 48
1.0
  6
BYLAYER
100
AcDbLine
 10
124.9999999999994884
 20
69.6999999999999886
 30
0.0
 11
134.9999999999994884
 21
69.6999999999999886
 31
0.0
  0
LINE
  5
10C
100
AcDbEntity
  8
0
 62
256
370
-1
 48
1.0
  6
BYLAYER
100
AcDbLine
 10
124.9999999999994316
 20
66.5999999999999943
 30
0.0
 11
134.9999999999994316
 21
66.5999999999999943
 31
0.0
  0
LINE
  5
10D
100
AcDbEntity
  8
0
 62
256
370
-1
 48
1.0
  6
BYLAYER
100
AcDbLine
 10
129.9999999999999432
 20
97.5
 30
0.0
 11
150.9999999999999432
 21
97.5
 31
0.0
  0
LINE
  5
10E
100
AcDbEntity
  8
0
 62
256
370
-1
 48
1.0
  6
BYLAYER
100
AcDbLine
 10
130.0
 20
97.5
 30
0.0
 11
109.0
 21
97.5
 31
0.0
  0
LINE
  5
10F
100
AcDbEntity
  8
0
 62
256
370
-1
 48
1.0
  6
BYLAYER
100
AcDbLine
 10
134.9999999999999432
 20
94.5
 30
0.0
 11
134.9999999999999716
 21
97.0
 31
0.0
  0
LINE
  5
110
100
AcDbEntity
  8
0
 62
256
370
-1
 48
1.0
  6
BYLAYER
100
AcDbLine
 10
134.9999999999998863
 20
91.4000000000000057
 30
0.0
 11
134.9999999999999147
 21
93.9000000000000057
 31
0.0
  0
LINE
  5
111
100
AcDbEntity
  8
0
 62
256
370
-1
 48
1.0
  6
BYLAYER
100
AcDbLine
 10
134.9999999999998295
 20
88.2999999999999972
 30
0.0
 11
134.9999999999998579
 21
90.7999999999999972
 31
0.0
  0
LINE
  5
112
100
AcDbEntity
  8
0
 62
256
370
-1
 48
1.0
  6
BYLAYER
100
AcDbLine
 10
134.9999999999997726
 20
85.2000000000000028
 30
0.0
 11
134.999999999999801
 21
87.7000000000000028
 31
0.0
  0
LINE
  5
113
100
AcDbEntity
  8
0
 62
256
370
-1
 48
1.0
  6
BYLAYER
100
AcDbLine
 10
134.9999999999997158
 20
82.0999999999999943
 30
0.0
 11
134.9999999999997442
 21
84.5999999999999943
 31
0.0
  0
LINE
  5
114
100
AcDbEntity
  8
0
 62
256
370
-1
 48
1.0
  6
BYLAYER
100
AcDbLine
 10
134.9999999999996589
 20
79.0
 30
0.0
 11
134.9999999999996874
 21
81.5
 31
0.0
  0
LINE
  5
115
100
AcDbEntity
  8
0
 62
256
370
-1
 48
1.0
  6
BYLAYER
100
AcDbLine
 10
134.9999999999996021
 20
75.9000000000000057
 30
0.0
 11
134.9999999999996305
 21
78.4000000000000057
 31
0.0
  0
LINE
  5
116
100
AcDbEntity
  8
0
 62
256
370
-1
 48
1.0
  6
BYLAYER
100
AcDbLine
 10
134.9999999999995453
 20
72.7999999999999972
 30
0.0
 11
134.9999999999995737
 21
75.2999999999999972
 31
0.0
  0
LINE
  5
117
100
AcDbEntity
  8
0
 62
256
370
-1
 48
1.0
  6
BYLAYER
100
AcDbLine
 10
134.9999999999994884
 20
69.6999999999999886
 30
0.0
 11
134.9999999999995168
 21
72.1999999999999886
 31
0.0
  0
LINE
  5
118
100
AcDbEntity
  8
0
 62
256
370
-1
 48
1.0
  6
BYLAYER
100
AcDbLine
 10
134.9999999999994316
 20
66.5999999999999943
 30
0.0
 11
134.99999999999946
 21
69.0999999999999943
 31
0.0
  0
LINE
  5
119
100
AcDbEntity
  8
0
 62
256
370
-1
 48
1.0
  6
BYLAYER
100
AcDbLine
 10
124.9999999999999716
 20
97.0
 30
0.0
 11
124.9999999999999432
 21
94.5
 31
0.0
  0
LINE
  5
11A
100
AcDbEntity
  8
0
 62
256
370
-1
 48
1.0
  6
BYLAYER
100
AcDbLine
 10
124.9999999999999147
 20
93.9000000000000057
 30
0.0
 11
124.9999999999998863
 21
91.4000000000000057
 31
0.0
  0
LINE
  5
11B
100
AcDbEntity
  8
0
 62
256
370
-1
 48
1.0
  6
BYLAYER
100
AcDbLine
 10
124.9999999999998579
 20
90.7999999999999972
 30
0.0
 11
124.9999999999998295
 21
88.2999999999999972
 31
0.0
  0
LINE
  5
11C
100
AcDbEntity
  8
0
 62
256
370
-1
 48
1.0
  6
BYLAYER
100
AcDbLine
 10
124.999999999999801
 20
87.7000000000000028
 30
0.0
 11
124.9999999999997726
 21
85.2000000000000028
 31
0.0
  0
LINE
  5
11D
100
AcDbEntity
  8
0
 62
256
370
-1
 48
1.0
  6
BYLAYER
100
AcDbLine
 10
124.9999999999997442
 20
84.5999999999999943
 30
0.0
 11
124.9999999999997158
 21
82.0999999999999943
 31
0.0
  0
LINE
  5
11E
100
AcDbEntity
  8
0
 62
256
370
-1
 48
1.0
  6
BYLAYER
100
AcDbLine
 10
124.9999999999996874
 20
81.5
 30
0.0
 11
124.9999999999996589
 21
79.0
 31
0.0
  0
LINE
  5
11F
100
AcDbEntity
  8
0
 62
256
370
-1
 48
1.0
  6
BYLAYER
100
AcDbLine
 10
124.9999999999996305
 20
78.4000000000000057
 30
0.0
 11
124.9999999999996021
 21
75.9000000000000057
 31
0.0
  0
LINE
  5
120
100
AcDbEntity
  8
0
 62
256
370
-1
 48
1.0
  6
BYLAYER
100
AcDbLine
 10
124.9999999999995737
 20
75.2999999999999972
 30
0.0
 11
124.9999999999995453
 21
72.7999999999999972
 31
0.0
  0
LINE
  5
121
100
AcDbEntity
  8
0
 62
256
370
-1
 48
1.0
  6
BYLAYER
100
AcDbLine
 10
124.9999999999995168
 20
72.1999999999999886
 30
0.0
 11
124.9999999999994884
 21
69.6999999999999886
 31
0.0
  0
LINE
  5
122
100
AcDbEntity
  8
0
 62
256
370
-1
 48
1.0
  6
BYLAYER
100
AcDbLine
 10
124.99999999999946
 20
69.0999999999999943
 30
0.0
 11
124.9999999999994316
 21
66.5999999999999943
 31
0.0
  0
LINE
  5
123
100
AcDbEntity
  8
0
 62
256
370
-1
 48
1.0
  6
BYLAYER
100
AcDbLine
 10
126.9999999999999432
 20
66.2999999999999972
 30
0.0
 11
126.9999999999999432
 21
108.1961524227065752
 31
0.0
  0
LINE
  5
124
100
AcDbEntity
  8
0
 62
256
370
-1
 48
1.0
  6
BYLAYER
100
AcDbLine
 10
132.9999999999999432
 20
66.2999999999999972
 30
0.0
 11
132.9999999999999432
 21
108.1961524227066036
 31
0.0
  0
LINE
  5
125
100
AcDbEntity
  8
0
 62
256
370
-1
 48
1.0
  6
BYLAYER
100
AcDbLine
 10
135.9999999999999432
 20
66.2999999999999972
 30
0.0
 11
135.9999999999999432
 21
103.0
 31
0.0
  0
LINE
  5
126
100
AcDbEntity
  8
0
 62
256
370
-1
 48
1.0
  6
BYLAYER
100
AcDbLine
 10
123.9999999999999432
 20
66.2999999999999972
 30
0.0
 11
123.9999999999999432
 21
103.0
 31
0.0
  0
LINE
  5
127
100
AcDbEntity
  8
0
 62
256
370
-1
 48
1.0
  6
BYLAYER
100
AcDbLine
 10
123.9999999999999432
 20
66.2999999999999972
 30
0.0
 11
126.9999999999999432
 21
66.2999999999999972
 31
0.0
  0
LINE
  5
128
100
AcDbEntity
  8
0
 62
256
370
-1
 48
1.0
  6
BYLAYER
100
AcDbLine
 10
135.9999999999999432
 20
66.2999999999999972
 30
0.0
 11
132.9999999999999432
 21
66.2999999999999972
 31
0.0
  0
LINE
  5
129
100
AcDbEntity
  8
0
 62
256
370
-1
 48
1.0
  6
BYLAYER
100
AcDbLine
 10
150.9999999999999432
 20
97.5
 30
0.0
 11
150.9999999999999432
 21
100.0
 31
0.0
  0
LINE
  5
12A
100
AcDbEntity
  8
0
 62
256
370
-1
 48
1.0
  6
BYLAYER
100
AcDbLine
 10
109.0
 20
97.5
 30
0.0
 11
109.0
 21
99.9999999999999716
 31
0.0
  0
LINE
  5
12B
100
AcDbEntity
  8
0
 62
256
370
-1
 48
1.0
  6
BYLAYER
100
AcDbLine
 10
143.8999999999999488
 20
99.9000000000000057
 30
0.0
 11
143.8999999999999488
 21
97.5
 31
0.0
  0
LINE
  5
12C
100
AcDbEntity
  8
0
 62
256
370
-1
 48
1.0
  6
BYLAYER
100
AcDbLine
 10
116.0999999999999943
 20
99.9000000000000199
 30
0.0
 11
116.0999999999999943
 21
97.5
 31
0.0
  0
LINE
  5
12D
100
AcDbEntity
  8
0
 62
256
370
-1
 48
1.0
  6
BYLAYER
100
AcDbLine
 10
139.4999999999999432
 20
99.5
 30
0.0
 11
136.9999999999999432
 21
99.5
 31
0.0
  0
LINE
  5
12E
100
AcDbEntity
  8
0
 62
256
370
-1
 48
1.0
  6
BYLAYER
100
AcDbLine
 10
120.4999999999999432
 20
99.5
 30
0.0
 11
122.9999999999999432
 21
99.5
 31
0.0
  0
LINE
  5
12F
100
AcDbEntity
  8
--
 62
256
370
-1
 48
1.0
  6
BYLAYER
100
AcDbLine
 10
145.9999999999999432
 20
97.5
 30
0.0
 11
145.9999999999999432
 21
100.0
 31
0.0
  0
LINE
  5
130
100
AcDbEntity
  8
--
 62
256
370
-1
 48
1.0
  6
BYLAYER
100
AcDbLine
 10
114.0
 20
97.5
 30
0.0
 11
114.0
 21
100.0
 31
0.0
  0
LINE
  5
131
100
AcDbEntity
  8
blue-
 62
256
370
-1
 48
1.0
  6
BYLAYER
100
AcDbLine
 10
148.9999999999999432
 20
100.5999999999999943
 30
0.0
 11
153.9999999999999432
 21
100.5999999999999943
 31
0.0
  0
LINE
  5
132
100
AcDbEntity
  8
blue-
 62
256
370
-1
 48
1.0
  6
BYLAYER
100
AcDbLine
 10
111.0
 20
100.6000000000000085
 30
0.0
 11
106.0
 21
100.600000000000108
 31
0.0
  0
LINE
  5
133
100
AcDbEntity
  8
blue-
 62
256
370
-1
 48
1.0
  6
BYLAYER
100
AcDbLine
 10
140.0999999999999375
 20
95.2000000000000028
 30
0.0
 11
140.0999999999999375
 21
90.2000000000000028
 31
0.0
  0
LINE
  5
134
100
AcDbEntity
  8
blue-
 62
256
370
-1
 48
1.0
  6
BYLAYER
100
AcDbLine
 10
119.9000000000000057
 20
95.2000000000000028
 30
0.0
 11
119.9000000000000057
 21
90.2000000000000028
 31
0.0
  0
LINE
  5
135
100
AcDbEntity
  8
blue-
 62
256
370
-1
 48
1.0
  6
BYLAYER
100
AcDbLine
 10
153.9999999999999432
 20
100.5999999999999943
 30
0.0
 11
153.9999999999999432
 21
96.9000000000000057
 31
0.0
  0
LINE
  5
136
100
AcDbEntity
  8
blue-
 62
256
370
-1
 48
1.0
  6
BYLAYER
100
AcDbLine
 10
106.0
 20
100.600000000000108
 30
0.0
 11
106.0
 21
96.9000000000000057
 31
0.0
  0
LINE
  5
137
100
AcDbEntity
  8
blue-
 62
256
370
-1
 48
1.0
  6
BYLAYER
100
AcDbLine
 10
140.0999999999999375
 20
90.2000000000000028
 30
0.0
 11
136.3999999999999488
 21
90.2000000000000028
 31
0.0
  0
LINE
  5
138
100
AcDbEntity
  8
blue-
 62
256
370
-1
 48
1.0
  6
BYLAYER
100
AcDbLine
 10
119.9000000000000057
 20
90.2000000000000028
 30
0.0
 11
123.5999999999999943
 21
90.2000000000000028
 31
0.0
  0
LINE
  5
139
100
AcDbEntity
  8
blue-
 62
256
370
-1
 48
1.0
  6
BYLAYER
100
AcDbLine
 10
153.9999999999999432
 20
96.9000000000000057
 30
0.0
 11
148.9999999999999432
 21
96.9000000000000057
 31
0.0
  0
LINE
  5
13A
100
AcDbEntity
  8
blue-
 62
256
370
-1
 48
1.0
  6
BYLAYER
100
AcDbLine
 10
106.0
 20
96.9000000000000057
 30
0.0
 11
111.0
 21
96.9000000000000057
 31
0.0
  0
LINE
  5
13B
100
AcDbEntity
  8
blue-
 62
256
370
-1
 48
1.0
  6
BYLAYER
100
AcDbLine
 10
136.3999999999999488
 20
90.2000000000000028
 30
0.0
 11
136.3999999999999204
 21
95.2000000000000028
 31
0.0
  0
LINE
  5
13C
100
AcDbEntity
  8
blue-
 62
256
370
-1
 48
1.0
  6
BYLAYER
100
AcDbLine
 10
123.5999999999999943
 20
90.2000000000000028
 30
0.0
 11
123.6000000000000227
 21
95.2000000000000028
 31
0.0
  0
LINE
  5
13D
100
AcDbEntity
  8
blue-
 62
256
370
-1
 48
1.0
  6
BYLAYER
100
AcDbLine
 10
148.9999999999999432
 20
96.9000000000000057
 30
0.0
 11
148.9999999999999432
 21
100.5999999999999943
 31
0.0
  0
LINE
  5
13E
100
AcDbEntity
  8
blue-
 62
256
370
-1
 48
1.0
  6
BYLAYER
100
AcDbLine
 10
111.0
 20
96.9000000000000057
 30
0.0
 11
111.0
 21
100.6000000000000085
 31
0.0
  0
LINE
  5
13F
100
AcDbEntity
  8
blue-
 62
256
370
-1
 48
1.0
  6
BYLAYER
100
AcDbLine
 10
136.3999999999999204
 20
95.2000000000000028
 30
0.0
 11
140.0999999999999375
 21
95.2000000000000028
 31
0.0
  0
LINE
  5
140
100
AcDbEntity
  8
blue-
 62
256
370
-1
 48
1.0
  6
BYLAYER
100
AcDbLine
 10
123.6000000000000227
 20
95.2000000000000028
 30
0.0
 11
119.9000000000000057
 21
95.2000000000000028
 31
0.0
  0
ARC
  5
141
100
AcDbEntity
  8
0
 62
256
370
-1
 48
1.0
  6
BYLAYER
100
AcDbCircle
 10
129.9999999999999716
 20
103.0
 30
0.0
 40
2.9999999999999716
100
AcDbArc
 50
0.0
 51
180.0
  0
ARC
  5
142
100
AcDbEntity
  8
0
 62
256
370
-1
 48
1.0
  6
BYLAYER
100
AcDbCircle
 10
129.9999999999999716
 20
103.0
 30
0.0
 40
5.9999999999999716
100
AcDbArc
 50
360.0
 51
180.0
  0
LINE
  5
143
100
AcDbEntity
  8
0
 62
256
370
-1
 48
1.0
  6
BYLAYER
100
AcDbLine
 10
136.9999999999999432
 20
99.5
 30
0.0
 11
136.9999999999999432
 21
93.0
 31
0.0
  0
LINE
  5
144
100
AcDbEntity
  8
0
 62
256
370
-1
 48
1.0
  6
BYLAYER
100
AcDbLine
 10
122.9999999999999432
 20
99.5
 30
0.0
 11
123.0
 21
93.0
 31
0.0
  0
LINE
  5
145
100
AcDbEntity
  8
0
 62
256
370
-1
 48
1.0
  6
BYLAYER
100
AcDbLine
 10
136.9999999999999432
 20
93.0
 30
0.0
 11
139.4999999999999432
 21
93.0
 31
0.0
  0
LINE
  5
146
100
AcDbEntity
  8
0
 62
256
370
-1
 48
1.0
  6
BYLAYER
100
AcDbLine
 10
123.0
 20
93.0
 30
0.0
 11
120.5
 21
93.0
 31
0.0
  0
LINE
  5
147
100
AcDbEntity
  8
0
 62
256
370
-1
 48
1.0
  6
BYLAYER
100
AcDbLine
 10
139.4999999999999432
 20
93.0
 30
0.0
 11
139.4999999999999432
 21
99.5
 31
0.0
  0
LINE
  5
148
100
AcDbEntity
  8
0
 62
256
370
-1
 48
1.0
  6
BYLAYER
100
AcDbLine
 10
120.5
 20
93.0
 30
0.0
 11
120.4999999999999432
 21
99.5
 31
0.0
  0
LINE
  5
149
100
AcDbEntity
  8
blue--
 62
256
370
-1
 48
1.0
  6
BYLAYER
100
AcDbLine
 10
37.5
 20
230.5
 30
0.0
 11
122.5
 21
230.5
 31
0.0
  0
MTEXT
  5
14A
100
AcDbEntity
  8
yellow
 62
256
370
-1
 48
1.0
  6
BYLAYER
100
AcDbMText
 10
22.0
 20
61.0
 30
0.0
 40
0.984252
 41
0.0
 71
1
 72
1
  1
\fLiberation Sans|b0|i0|c0|p0;\H2;\U+0441\U+043f\U+0438\U+043d\U+043d\U+044b\U+0435 \U+043f\U+043e\U+0434\U+0443\U+0448\U+043a\U+0438\P2 \U+0448\U+0442\P12+2 \U+0445 30+2
  7
textstyle4
 50
0.0
 73
2
 44
1.0
  0
LINE
  5
14B
100
AcDbEntity
  8
yellow
 62
256
370
-1
 48
1.0
  6
BYLAYER
100
AcDbLine
 10
17.0
 20
18.0
 30
0.0
 11
133.0
 21
18.0
 31
0.0
  0
LINE
  5
14C
100
AcDbEntity
  8
yellow
 62
256
370
-1
 48
1.0
  6
BYLAYER
100
AcDbLine
 10
133.0
 20
18.0
 30
0.0
 11
133.0
 21
28.0
 31
0.0
  0
LINE
  5
14D
100
AcDbEntity
  8
yellow
 62
256
370
-1
 48
1.0
  6
BYLAYER
100
AcDbLine
 10
133.0
 20
28.0
 30
0.0
 11
17.0
 21
28.0
 31
0.0
  0
LINE
  5
14E
100
AcDbEntity
  8
yellow
 62
256
370
-1
 48
1.0
  6
BYLAYER
100
AcDbLine
 10
17.0
 20
28.0
 30
0.0
 11
17.0
 21
18.0
 31
0.0
  0
MTEXT
  5
14F
100
AcDbEntity
  8
yellow
 62
256
370
-1
 48
1.0
  6
BYLAYER
100
AcDbMText
 10
23.9213407727194465
 20
26.4201208607543521
 30
0.0
 40
0.984252
 41
0.0
 71
1
 72
1
  3
\fLiberation Sans|b0|i0|c0|p0;\H2;\U+043a\U+0430\U+0440\U+043c\U+0430\U+043d \U+0434\U+043b\U+044f \U+0443\U+0442\U+044f\U+0436\U+043a\U+0438\P10\U+0445116 (\U+0441\U+0434\U+0435\U+043b\U+0430\U+043d \U+0441 \U+0437\U+0430\U+043f\U+0430\U+0441\U+043e
  1
\U+043c \U+043f\U+043e \U+0434\U+043b\U+0438\U+043d\U+0435, \U+043f\U+043e\U+0442\U+043e\U+043c \U+043e\U+0442\U+0440\U+0435\U+0437\U+0430\U+043d)
  7
textstyle5
 50
0.0
 73
2
 44
1.0
  0
LINE
  5
150
100
AcDbEntity
  8
yellow
 62
256
370
-1
 48
1.0
  6
BYLAYER
100
AcDbLine
 10
27.0
 20
90.0
 30
0.0
 11
93.0
 21
90.0
 31
0.0
  0
LINE
  5
151
100
AcDbEntity
  8
yellow
 62
256
370
-1
 48
1.0
  6
BYLAYER
100
AcDbLine
 10
93.0
 20
90.0
 30
0.0
 11
93.0
 21
82.0
 31
0.0
  0
LINE
  5
152
100
AcDbEntity
  8
yellow
 62
256
370
-1
 48
1.0
  6
BYLAYER
100
AcDbLine
 10
27.0
 20
82.0
 30
0.0
 11
27.0
 21
90.0
 31
0.0
  0
LINE
  5
153
100
AcDbEntity
  8
yellow--
 62
256
370
-1
 48
1.0
  6
BYLAYER
100
AcDbLine
 10
60.0
 20
92.0
 30
0.0
 11
60.0
 21
77.0
 31
0.0
  0
LINE
  5
154
100
AcDbEntity
  8
yellow
 62
256
370
-1
 48
1.0
  6
BYLAYER
100
AcDbLine
 10
27.0
 20
82.0
 30
0.0
 11
50.0
 21
78.0
 31
0.0
  0
LINE
  5
155
100
AcDbEntity
  8
yellow
 62
256
370
-1
 48
1.0
  6
BYLAYER
100
AcDbLine
 10
50.0
 20
78.0
 30
0.0
 11
70.0
 21
78.0
 31
0.0
  0
LINE
  5
156
100
AcDbEntity
  8
yellow
 62
256
370
-1
 48
1.0
  6
BYLAYER
100
AcDbLine
 10
70.0
 20
78.0
 30
0.0
 11
93.0
 21
82.0
 31
0.0
  0
LINE
  5
157
100
AcDbEntity
  8
yellow--
 62
256
370
-1
 48
1.0
  6
BYLAYER
100
AcDbLine
 10
50.0
 20
78.0
 30
0.0
 11
50.0
 21
90.0
 31
0.0
  0
LINE
  5
158
100
AcDbEntity
  8
yellow--
 62
256
370
-1
 48
1.0
  6
BYLAYER
100
AcDbLine
 10
70.0
 20
78.0
 30
0.0
 11
70.0
 21
90.0
 31
0.0
  0
LINE
  5
159
100
AcDbEntity
  8
yellow
 62
256
370
-1
 48
1.0
  6
BYLAYER
100
AcDbLine
 10
27.0
 20
92.0
 30
0.0
 11
50.0
 21
92.0
 31
0.0
  0
LINE
  5
15A
100
AcDbEntity
  8
yellow
 62
256
370
-1
 48
1.0
  6
BYLAYER
100
AcDbLine
 10
50.0
 20
92.0
 30
0.0
 11
50.0
 21
104.0
 31
0.0
  0
LINE
  5
15B
100
AcDbEntity
  8
yellow
 62
256
370
-1
 48
1.0
  6
BYLAYER
100
AcDbLine
 10
50.0
 20
104.0
 30
0.0
 11
27.0
 21
100.0
 31
0.0
  0
LINE
  5
15C
100
AcDbEntity
  8
yellow
 62
256
370
-1
 48
1.0
  6
BYLAYER
100
AcDbLine
 10
27.0
 20
100.0
 30
0.0
 11
27.0
 21
92.0
 31
0.0
  0
LINE
  5
15D
100
AcDbEntity
  8
yellow
 62
256
370
-1
 48
1.0
  6
BYLAYER
100
AcDbLine
 10
70.0
 20
92.0
 30
0.0
 11
70.0
 21
104.0
 31
0.0
  0
LINE
  5
15E
100
AcDbEntity
  8
yellow
 62
256
370
-1
 48
1.0
  6
BYLAYER
100
AcDbLine
 10
70.0
 20
104.0
 30
0.0
 11
93.0
 21
100.0
 31
0.0
  0
LINE
  5
15F
100
AcDbEntity
  8
yellow
 62
256
370
-1
 48
1.0
  6
BYLAYER
100
AcDbLine
 10
93.0
 20
100.0
 30
0.0
 11
93.0
 21
92.0
 31
0.0
  0
LINE
  5
160
100
AcDbEntity
  8
yellow
 62
256
370
-1
 48
1.0
  6
BYLAYER
100
AcDbLine
 10
93.0
 20
92.0
 30
0.0
 11
70.0
 21
92.0
 31
0.0
  0
DIMENSION
  5
161
100
AcDbEntity
  8
dim
 62
256
370
-1
 48
1.0
  6
BYLAYER
100
AcDbDimension
 10
27.0
 20
67.9180034860627302
 30
0.0
 11
60.0
 21
69.7930034860627302
 31
0.0
 70
0
 71
8
 72
2
 74
0
 75
0
 41
1.0
 42
0.0
  1
66+2
  3
Standard
100
AcDbAlignedDimension
 13
27.0
 23
82.0000000000000142
 33
0.0
 14
93.0
 24
81.9999999999999716
 34
0.0
 50
0.0
100
AcDbRotatedDimension
1001
ACAD
1000
DSTYLE
1002
{
1070
144
1040
1.0
1070
40
1040
1.0
1002
}
  0
DIMENSION
  5
162
100
AcDbEntity
  8
dim
 62
256
370
-1
 48
1.0
  6
BYLAYER
100
AcDbDimension
 10
27.0
 20
110.2780034860627723
 30
0.0
 11
38.5
 21
112.1530034860627723
 31
0.0
 70
0
 71
8
 72
2
 74
0
 75
0
 41
1.0
 42
0.0
  1
23+2
  3
Standard
100
AcDbAlignedDimension
 13
27.0
 23
100.0000000000000853
 33
0.0
 14
50.0
 24
104.0000000000000995
 34
0.0
 50
0.0
100
AcDbRotatedDimension
1001
ACAD
1000
DSTYLE
1002
{
1070
144
1040
1.0
1070
40
1040
1.0
1002
}
  0
DIMENSION
  5
163
100
AcDbEntity
  8
dim
 62
256
370
-1
 48
1.0
  6
BYLAYER
100
AcDbDimension
 10
17.7463254041858818
 20
89.9999999999999432
 30
0.0
 11
15.8713254041858818
 21
86.0000000000000284
 31
0.0
 70
0
 71
8
 72
2
 74
0
 75
0
 41
1.0
 42
0.0
  1
8+2
  3
Standard
100
AcDbAlignedDimension
 13
27.0
 23
90.0000000000000426
 33
0.0
 14
27.0
 24
82.0000000000000142
 34
0.0
 50
90.0
100
AcDbRotatedDimension
1001
ACAD
1000
DSTYLE
1002
{
1070
144
1040
1.0
1070
40
1040
1.0
1002
}
  0
DIMENSION
  5
164
100
AcDbEntity
  8
dim
 62
256
370
-1
 48
1.0
  6
BYLAYER
100
AcDbDimension
 10
103.5463254041858931
 20
78.0000000000000995
 30
0.0
 11
101.6713254041858931
 21
84.0000000000000426
 31
0.0
 70
0
 71
8
 72
2
 74
0
 75
0
 41
1.0
 42
0.0
  1
12+2
  3
Standard
100
AcDbAlignedDimension
 13
70.0
 23
78.0000000000000995
 33
0.0
 14
70.0
 24
89.9999999999999858
 34
0.0
 50
90.0
100
AcDbRotatedDimension
1001
ACAD
1000
DSTYLE
1002
{
1070
144
1040
1.0
1070
40
1040
1.0
1002
}
  0
DIMENSION
  5
165
100
AcDbEntity
  8
dim
 62
256
370
-1
 48
1.0
  6
BYLAYER
100
AcDbDimension
 10
50.0
 20
110.518003486062824
 30
0.0
 11
60.0
 21
112.393003486062824
 31
0.0
 70
0
 71
8
 72
2
 74
0
 75
0
 41
1.0
 42
0.0
  1

  3
Standard
100
AcDbAlignedDimension
 13
50.0
 23
104.0000000000000995
 33
0.0
 14
70.0
 24
103.9999999999999858
 34
0.0
 50
0.0
100
AcDbRotatedDimension
1001
ACAD
1000
DSTYLE
1002
{
1070
144
1040
1.0
1070
40
1040
1.0
1002
}
  0
MTEXT
  5
166
100
AcDbEntity
  8
yellow
 62
256
370
-1
 48
1.0
  6
BYLAYER
100
AcDbMText
 10
38.8663254041859432
 20
87.7180034860626989
 30
0.0
 40
0.984252
 41
0.0
 71
1
 72
1
  1
\fLiberation Sans|b0|i0|c0|p0;\H2;\U+043f\U+043e\U+044f\U+0441
  7
textstyle6
 50
0.0
 73
2
 44
1.0
  0
DIMENSION
  5
167
100
AcDbEntity
  8
dim
 62
256
370
-1
 48
1.0
  6
BYLAYER
100
AcDbDimension
 10
195.0
 20
155.0000000000000284
 30
0.0
 11
193.125
 21
145.0
 31
0.0
 70
0
 71
8
 72
2
 74
0
 75
0
 41
1.0
 42
0.0
  1
20+2
  3
Standard
100
AcDbAlignedDimension
 13
182.0
 23
155.0
 33
0.0
 14
180.0
 24
135.0000000000000284
 34
0.0
 50
90.0
100
AcDbRotatedDimension
1001
ACAD
1000
DSTYLE
1002
{
1070
144
1040
1.0
1070
40
1040
1.0
1002
}
  0
DIMENSION
  5
168
100
AcDbEntity
  8
dim
 62
256
370
-1
 48
1.0
  6
BYLAYER
100
AcDbDimension
 10
147.0
 20
127.9154970965587808
 30
0.0
 11
166.0
 21
129.790497096558795
 31
0.0
 70
0
 71
8
 72
2
 74
0
 75
0
 41
1.0
 42
0.0
  1
38+2
  3
Standard
100
AcDbAlignedDimension
 13
147.0
 23
139.9999999999999716
 33
0.0
 14
185.0
 24
140.0
 34
0.0
 50
0.0
100
AcDbRotatedDimension
1001
ACAD
1000
DSTYLE
1002
{
1070
144
1040
1.0
1070
40
1040
1.0
1002
}
  0
MTEXT
  5
169
100
AcDbEntity
  8
0
 62
256
370
-1
 48
1.0
  6
BYLAYER
100
AcDbMText
 10
115.4689496616083204
 20
112.7315430829765148
 30
0.0
 40
0.984252
 41
0.0
 71
1
 72
1
  1
\fLiberation Sans|b0|i0|c0|p0;\H2;\U+043a\U+0440\U+0435\U+043f\U+043b\U+0435\U+043d\U+0438\U+0435 \U+043b\U+044f\U+043c\U+043e\U+043a (\U+0441\U+0442\U+0440\U+043e\U+043f\U+0430)
  7
textstyle7
 50
0.0
 73
2
 44
1.0
  0
LINE
  5
16A
100
AcDbEntity
  8
yellow
 62
256
370
-1
 48
1.0
  6
BYLAYER
100
AcDbLine
 10
90.0
 20
60.0
 30
0.0
 11
110.0
 21
60.0
 31
0.0
  0
LINE
  5
16B
100
AcDbEntity
  8
yellow
 62
256
370
-1
 48
1.0
  6
BYLAYER
100
AcDbLine
 10
110.0
 20
60.0
 30
0.0
 11
112.0
 21
44.0
 31
0.0
  0
LINE
  5
16C
100
AcDbEntity
  8
yellow
 62
256
370
-1
 48
1.0
  6
BYLAYER
100
AcDbLine
 10
112.0
 20
44.0
 30
0.0
 11
88.0
 21
44.0
 31
0.0
  0
LINE
  5
16D
100
AcDbEntity
  8
yellow
 62
256
370
-1
 48
1.0
  6
BYLAYER
100
AcDbLine
 10
88.0
 20
44.0
 30
0.0
 11
90.0
 21
60.0
 31
0.0
  0
LINE
  5
16E
100
AcDbEntity
  8
yellow--
 62
256
370
-1
 48
1.0
  6
BYLAYER
100
AcDbLine
 10
96.0
 20
60.0
 30
0.0
 11
96.0
 21
44.0
 31
0.0
  0
LINE
  5
16F
100
AcDbEntity
  8
yellow--
 62
256
370
-1
 48
1.0
  6
BYLAYER
100
AcDbLine
 10
104.0
 20
60.0
 30
0.0
 11
104.0
 21
44.0
 31
0.0
  0
MTEXT
  5
170
100
AcDbEntity
  8
yellow
 62
256
370
-1
 48
1.0
  6
BYLAYER
100
AcDbMText
 10
115.5899119940526134
 20
58.0783935860876852
 30
0.0
 40
0.984252
 41
0.0
 71
1
 72
1
  3
\fLiberation Sans|b0|i0|c0|p0;\H2;\U+043f\U+043e\U+044f\U+0441\U+043d\U+0430\U+044f \U+043f\U+043e\U+0434\U+0443\U+0448\U+043a\U+0430\P2 \U+0434\U+0435\U+0442\U+0430\U+043b\U+0438\P\U+0441\U+0448\U+0438\U+0442\U+044c \U+0431\U+043e\U+043a\U+0430, \U+
  1
0432\U+044b\U+0432\U+0435\U+0440\U+043d\U+0443\U+0442\U+044c,\P\U+0441\U+0448\U+0438\U+0442\U+044c \U+0446\U+0435\U+043d\U+0442\U+0440\U+044b, \U+043d\U+0430\U+0431\U+0438\U+0442\U+044c.
  7
textstyle8
 50
0.0
 73
2
 44
1.0
  0
DIMENSION
  5
171
100
AcDbEntity
  8
dim
 62
256
370
-1
 48
1.0
  6
BYLAYER
100
AcDbDimension
 10
88.0
 20
35.3263935860876899
 30
0.0
 11
100.0
 21
37.2013935860876899
 31
0.0
 70
0
 71
8
 72
2
 74
0
 75
0
 41
1.0
 42
0.0
  1
24+2
  3
Standard
100
AcDbAlignedDimension
 13
88.0
 23
44.0
 33
0.0
 14
112.0
 24
44.0
 34
0.0
 50
0.0
100
AcDbRotatedDimension
1001
ACAD
1000
DSTYLE
1002
{
1070
144
1040
1.0
1070
40
1040
1.0
1002
}
  0
DIMENSION
  5
172
100
AcDbEntity
  8
dim
 62
256
370
-1
 48
1.0
  6
BYLAYER
100
AcDbDimension
 10
90.0
 20
63.5503935860876936
 30
0.0
 11
100.0
 21
65.4253935860876936
 31
0.0
 70
0
 71
8
 72
2
 74
0
 75
0
 41
1.0
 42
0.0
  1
20+2
  3
Standard
100
AcDbAlignedDimension
 13
90.0
 23
60.0
 33
0.0
 14
110.0
 24
60.0
 34
0.0
 50
0.0
100
AcDbRotatedDimension
1001
ACAD
1000
DSTYLE
1002
{
1070
144
1040
1.0
1070
40
1040
1.0
1002
}
  0
DIMENSION
  5
173
100
AcDbEntity
  8
dim
 62
256
370
-1
 48
1.0
  6
BYLAYER
100
AcDbDimension
 10
80.8859119940526341
 20
44.0
 30
0.0
 11
79.0109119940526341
 21
52.0
 31
0.0
 70
0
 71
8
 72
2
 74
0
 75
0
 41
1.0
 42
0.0
  1
16+2
  3
Standard
100
AcDbAlignedDimension
 13
88.0
 23
44.0
 33
0.0
 14
90.0
 24
60.0
 34
0.0
 50
90.0
100
AcDbRotatedDimension
1001
ACAD
1000
DSTYLE
1002
{
1070
144
1040
1.0
1070
40
1040
1.0
1002
}
  0
ENDSEC
  0
SECTION
  2
OBJECTS
  0
DICTIONARY
  5
C
100
AcDbDictionary
280
0
281
1
  3
ACAD_GROUP
350
D
  3
ACAD_LAYOUT
350
1A
  3
ACAD_MLINESTYLE
350
17
  3
ACAD_PLOTSETTINGS
350
19
  3
ACAD_PLOTSTYLENAME
350
E
  3
AcDbVariableDictionary
350
174
  3
QCAD_OBJECTS
350
175
  0
DICTIONARY
  5
D
100
AcDbDictionary
280
0
281
1
  0
ACDBDICTIONARYWDFLT
  5
E
100
AcDbDictionary
281
1
  3
Normal
350
F
100
AcDbDictionaryWithDefault
340
F
  0
ACDBPLACEHOLDER
  5
F
  0
DICTIONARY
  5
17
100
AcDbDictionary
280
0
281
1
  3
Standard
350
18
  0
MLINESTYLE
  5
18
100
AcDbMlineStyle
  2
STANDARD
 70
0
  3

 62
256
 51
90.0
 52
90.0
 71
2
 49
0.5
 62
256
  6
BYLAYER
 49
-0.5
 62
256
  6
BYLAYER
  0
DICTIONARY
  5
19
100
AcDbDictionary
280
0
281
1
  0
DICTIONARY
  5
1A
100
AcDbDictionary
281
1
  3
Layout1
350
1E
  3
Layout2
350
26
  3
Model
350
22
  0
LAYOUT
  5
1E
100
AcDbPlotSettings
  1

  2
none_device
  4

  6

 40
0.0
 41
0.0
 42
0.0
 43
0.0
 44
0.0
 45
0.0
 46
0.0
 47
0.0
 48
0.0
 49
0.0
140
0.0
141
0.0
142
1.0
143
1.0
 70
688
 72
0
 73
0
 74
5
  7

 75
16
147
1.0
148
0.0
149
0.0
100
AcDbLayout
  1
Layout1
 70
1
 71
1
 10
0.0
 20
0.0
 11
420.0
 21
297.0
 12
0.0
 22
0.0
 32
0.0
 14
100000000000000000000.0
 24
100000000000000000000.0
 34
100000000000000000000.0
 15
-100000000000000000000.0
 25
-100000000000000000000.0
 35
-100000000000000000000.0
146
0.0
 13
0.0
 23
0.0
 33
0.0
 16
1.0
 26
0.0
 36
0.0
 17
0.0
 27
1.0
 37
0.0
 76
0
330
1B
  0
LAYOUT
  5
22
100
AcDbPlotSettings
  1

  2
none_device
  4

  6

 40
0.0
 41
0.0
 42
0.0
 43
0.0
 44
0.0
 45
0.0
 46
0.0
 47
0.0
 48
0.0
 49
0.0
140
0.0
141
0.0
142
1.0
143
1.0
 70
1712
 72
0
 73
0
 74
0
  7

 75
0
147
1.0
148
0.0
149
0.0
100
AcDbLayout
  1
Model
 70
1
 71
0
 10
0.0
 20
0.0
 11
12.0
 21
9.0
 12
0.0
 22
0.0
 32
0.0
 14
0.0
 24
0.0
 34
0.0
 15
0.0
 25
0.0
 35
0.0
146
0.0
 13
0.0
 23
0.0
 33
0.0
 16
1.0
 26
0.0
 36
0.0
 17
0.0
 27
1.0
 37
0.0
 76
0
330
1F
  0
LAYOUT
  5
26
100
AcDbPlotSettings
  1

  2
none_device
  4

  6

 40
0.0
 41
0.0
 42
0.0
 43
0.0
 44
0.0
 45
0.0
 46
0.0
 47
0.0
 48
0.0
 49
0.0
140
0.0
141
0.0
142
1.0
143
1.0
 70
688
 72
0
 73
0
 74
5
  7

 75
16
147
1.0
148
0.0
149
0.0
100
AcDbLayout
  1
Layout2
 70
1
 71
2
 10
0.0
 20
0.0
 11
12.0
 21
9.0
 12
0.0
 22
0.0
 32
0.0
 14
0.0
 24
0.0
 34
0.0
 15
0.0
 25
0.0
 35
0.0
146
0.0
 13
0.0
 23
0.0
 33
0.0
 16
1.0
 26
0.0
 36
0.0
 17
0.0
 27
1.0
 37
0.0
 76
0
330
23
  0
DICTIONARY
  5
174
100
AcDbDictionary
281
1
  3
DIMASSOC
350
177
  3
HIDETEXT
350
176
  0
DICTIONARYVAR
  5
176
100
DictionaryVariables
280
0
  1
2
  0
DICTIONARYVAR
  5
177
100
DictionaryVariables
280
0
  1
1
  0
DICTIONARY
  5
175
100
AcDbDictionary
281
1
  3
ColorSettings/BackgroundColor
350
178
  3
ColorSettings/ColorMode
350
179
  3
Grid/DisplayGrid00
350
17A
  3
Grid/DisplayGrid01
350
17B
  3
Grid/DisplayGrid02
350
17C
  3
Grid/DisplayGrid03
350
17D
  3
Grid/GridSpacingX00
350
17E
  3
Grid/GridSpacingX01
350
17F
  3
Grid/GridSpacingX02
350
180
  3
Grid/GridSpacingX03
350
181
  3
Grid/GridSpacingY00
350
182
  3
Grid/GridSpacingY01
350
183
  3
Grid/GridSpacingY02
350
184
  3
Grid/GridSpacingY03
350
185
  3
Grid/IsometricGrid00
350
186
  3
Grid/IsometricGrid01
350
187
  3
Grid/IsometricGrid02
350
188
  3
Grid/IsometricGrid03
350
189
  3
Grid/IsometricProjection00
350
18A
  3
Grid/IsometricProjection01
350
18B
  3
Grid/IsometricProjection02
350
18C
  3
Grid/IsometricProjection03
350
18D
  3
Grid/MetaGridSpacingX00
350
18E
  3
Grid/MetaGridSpacingX01
350
18F
  3
Grid/MetaGridSpacingX02
350
190
  3
Grid/MetaGridSpacingX03
350
191
  3
Grid/MetaGridSpacingY00
350
192
  3
Grid/MetaGridSpacingY01
350
193
  3
Grid/MetaGridSpacingY02
350
194
  3
Grid/MetaGridSpacingY03
350
195
  3
MultiPageSettings/Columns
350
196
  3
MultiPageSettings/GlueMarginsBottom
350
197
  3
MultiPageSettings/GlueMarginsLeft
350
198
  3
MultiPageSettings/GlueMarginsRight
350
199
  3
MultiPageSettings/GlueMarginsTop
350
19A
  3
MultiPageSettings/PrintCropMarks
350
19B
  3
MultiPageSettings/Rows
350
19C
  3
PageSettings/OffsetX
350
19D
  3
PageSettings/OffsetY
350
19E
  3
PageSettings/PageOrientation
350
19F
  3
PageSettings/PaperHeight
350
1A0
  3
PageSettings/PaperWidth
350
1A1
  3
PageSettings/PositionAccepted
350
1A2
  3
PageSettings/Scale
350
1A3
  3
PageSettings/ShowPaperBorders
350
1A4
  3
PageTagSettings/EnablePageTags
350
1A5
  3
PageTagSettings/TagAlignment
350
1A6
  3
PageTagSettings/TagFont
350
1A7
  3
PageTagSettings/TagPosition
350
1A8
  3
QCADVersion
350
1A9
  3
UnitSettings/PaperUnit
350
1AA
  3
ViewportCenter
350
1AB
  3
ViewportHeight
350
1AC
  3
ViewportWidth
350
1AD
  0
XRECORD
  5
178
330
175
100
AcDbXrecord
280
1
1000
White
  0
XRECORD
  5
179
330
175
100
AcDbXrecord
280
1
1000
FullColor
  0
XRECORD
  5
17A
330
175
100
AcDbXrecord
280
1
290
1
  0
XRECORD
  5
17B
330
175
100
AcDbXrecord
280
1
290
1
  0
XRECORD
  5
17C
330
175
100
AcDbXrecord
280
1
290
1
  0
XRECORD
  5
17D
330
175
100
AcDbXrecord
280
1
290
1
  0
XRECORD
  5
17E
330
175
100
AcDbXrecord
280
1
1000
auto
  0
XRECORD
  5
17F
330
175
100
AcDbXrecord
280
1
1000
auto
  0
XRECORD
  5
180
330
175
100
AcDbXrecord
280
1
1000
auto
  0
XRECORD
  5
181
330
175
100
AcDbXrecord
280
1
1000
auto
  0
XRECORD
  5
182
330
175
100
AcDbXrecord
280
1
1000
auto
  0
XRECORD
  5
183
330
175
100
AcDbXrecord
280
1
1000
auto
  0
XRECORD
  5
184
330
175
100
AcDbXrecord
280
1
1000
auto
  0
XRECORD
  5
185
330
175
100
AcDbXrecord
280
1
1000
auto
  0
XRECORD
  5
186
330
175
100
AcDbXrecord
280
1
290
0
  0
XRECORD
  5
187
330
175
100
AcDbXrecord
280
1
290
0
  0
XRECORD
  5
188
330
175
100
AcDbXrecord
280
1
290
0
  0
XRECORD
  5
189
330
175
100
AcDbXrecord
280
1
290
0
  0
XRECORD
  5
18A
330
175
100
AcDbXrecord
280
1
 90
65537
  0
XRECORD
  5
18B
330
175
100
AcDbXrecord
280
1
 90
65537
  0
XRECORD
  5
18C
330
175
100
AcDbXrecord
280
1
 90
65537
  0
XRECORD
  5
18D
330
175
100
AcDbXrecord
280
1
 90
65537
  0
XRECORD
  5
18E
330
175
100
AcDbXrecord
280
1
1000
auto
  0
XRECORD
  5
18F
330
175
100
AcDbXrecord
280
1
1000
auto
  0
XRECORD
  5
190
330
175
100
AcDbXrecord
280
1
1000
auto
  0
XRECORD
  5
191
330
175
100
AcDbXrecord
280
1
1000
auto
  0
XRECORD
  5
192
330
175
100
AcDbXrecord
280
1
1000
auto
  0
XRECORD
  5
193
330
175
100
AcDbXrecord
280
1
1000
auto
  0
XRECORD
  5
194
330
175
100
AcDbXrecord
280
1
1000
auto
  0
XRECORD
  5
195
330
175
100
AcDbXrecord
280
1
1000
auto
  0
XRECORD
  5
196
330
175
100
AcDbXrecord
280
1
 90
1
  0
XRECORD
  5
197
330
175
100
AcDbXrecord
280
1
 40
10.0
  0
XRECORD
  5
198
330
175
100
AcDbXrecord
280
1
 40
10.0
  0
XRECORD
  5
199
330
175
100
AcDbXrecord
280
1
 40
10.0
  0
XRECORD
  5
19A
330
175
100
AcDbXrecord
280
1
 40
10.0
  0
XRECORD
  5
19B
330
175
100
AcDbXrecord
280
1
290
0
  0
XRECORD
  5
19C
330
175
100
AcDbXrecord
280
1
 90
1
  0
XRECORD
  5
19D
330
175
100
AcDbXrecord
280
1
 40
3.2348159999999986
  0
XRECORD
  5
19E
330
175
100
AcDbXrecord
280
1
 40
4.2301439999999966
  0
XRECORD
  5
19F
330
175
100
AcDbXrecord
280
1
1000
Portrait
  0
XRECORD
  5
1A0
330
175
100
AcDbXrecord
280
1
 40
297.0
  0
XRECORD
  5
1A1
330
175
100
AcDbXrecord
280
1
 40
210.0
  0
XRECORD
  5
1A2
330
175
100
AcDbXrecord
280
1
290
1
  0
XRECORD
  5
1A3
330
175
100
AcDbXrecord
280
1
1000
1:1
  0
XRECORD
  5
1A4
330
175
100
AcDbXrecord
280
1
290
1
  0
XRECORD
  5
1A5
330
175
100
AcDbXrecord
280
1
290
0
  0
XRECORD
  5
1A6
330
175
100
AcDbXrecord
280
1
1000
Inside
  0
XRECORD
  5
1A7
330
175
100
AcDbXrecord
280
1
1000
Arial,10,-1,5,50,0,0,0,0,0
  0
XRECORD
  5
1A8
330
175
100
AcDbXrecord
280
1
1000
TopLeft
  0
XRECORD
  5
1A9
330
175
100
AcDbXrecord
280
1
1000
3.28.1
  0
XRECORD
  5
1AA
330
175
100
AcDbXrecord
280
1
 90
4
  0
XRECORD
  5
1AC
330
175
100
AcDbXrecord
280
1
 40
346.9874380165289267
  0
XRECORD
  5
1AD
330
175
100
AcDbXrecord
280
1
 40
651.4957438016529068
  0
ENDSEC
  0
EOF
